<?xml version="1.0" standalone="no"?>
<!DOCTYPE svg PUBLIC "-//W3C//DTD SVG 1.1//EN" "http://www.w3.org/Graphics/SVG/1.1/DTD/svg11.dtd" >
<svg xmlns="http://www.w3.org/2000/svg">
<metadata></metadata>
<defs>
<font id="comic_booknormal" horiz-adv-x="1052" >
<font-face units-per-em="2048" ascent="1638" descent="-410" />
<missing-glyph horiz-adv-x="651" />
<glyph horiz-adv-x="2048" />
<glyph horiz-adv-x="2048" />
<glyph unicode="&#xd;" horiz-adv-x="651" />
<glyph unicode=" "  horiz-adv-x="651" />
<glyph unicode="&#x09;" horiz-adv-x="651" />
<glyph unicode="&#xa0;" horiz-adv-x="651" />
<glyph unicode="!" horiz-adv-x="1054" d="M16 119q1 74 54 127l80 80q53 43 104 43q23 0 45 -9q115 -45 115 -145q0 -29 -9.5 -52.5t-15.5 -23.5q6 0 -33 -41q-41 -47 -88 -75q-61 -41 -116 -41q-35 0 -66 18q-70 39 -70 119zM219 532q29 23 76 154q92 250 115 301q14 37 165 432q29 47 168 47q37 0 156 -6 q104 -4 162 -2q70 2 69 -47q0 -115 -342 -461q-264 -403 -241 -418q10 -8 -74 -8q-61 0 -164 4q-37 2 -90 4z" />
<glyph unicode="&#x22;" horiz-adv-x="823" d="M0 1176q0 76 51 127q74 74 82 79q53 43 103 43q23 0 45 -8q117 -45 116 -145q0 -29 -10 -52.5t-16 -23.5q8 0 -35 -72q-47 -82 -100 -135q-74 -74 -146 -74q-39 0 -78 25q90 88 90 137q0 54 -98 60q-4 18 -4 39zM485 1167q0 76 52 127q74 74 81 80q53 43 103 43 q23 0 45 -8q117 -45 117 -145q0 -29 -10.5 -52.5t-16.5 -23.5q8 0 -35 -72q-47 -82 -100 -135q-74 -74 -146 -74q-39 0 -77 25q90 88 90 137q-1 53 -99 59q-4 18 -4 39z" />
<glyph unicode="#" horiz-adv-x="1300" d="M-2 625q0 16 10 24q4 2 230 21l49 141q-86 0 -109 2q-4 -16 -65.5 55.5t-61.5 112.5q0 16 10 25q4 4 301 26q72 211 84 236q16 45 146 45q131 0 166 -53q-12 -43 -64 -205q80 6 152 10q61 178 72 201q16 45 145 45q131 0 166 -54q-12 -37 -58 -182q94 -2 98.5 -14 t45.5 -65.5t41 -80.5q0 -29 -37 -43t-221 -28l-41 -125q156 0 160 -13.5t45 -66.5t41 -80q0 -29 -37 -43q-43 -18 -291 -35q-57 -156 -84 -205q-14 -43 -160 -43q-172 0 -172 35q0 4 4 8q20 41 74 189q-72 -2 -141 -4q-51 -137 -76 -182q-14 -43 -160 -43q-172 0 -172 34 q0 4 4 9q20 39 70 176q-27 0 -37 2q-4 -16 -65.5 55.5t-61.5 112.5zM578 694q75 7 143 11l41 118l-144 -4q-23 -66 -40 -125z" />
<glyph unicode="$" horiz-adv-x="1427" d="M35 444q0 39 94 106.5t147 67.5q29 0 33 -22q14 -82 162 -131l74 233q-100 -2 -127 -10q-8 -2 -19 -2q-72 0 -161 76q-96 80 -84 149q33 184 120 281q78 84 222 127q106 33 274 53q78 211 109 242q18 18 43 18q51 0 112 -73q55 -68 56 -97q0 -6 -8.5 -3t-39.5 -73 q367 -8 457 -192q18 -37 19 -74q0 -74 -58.5 -127t-122.5 -53q-96 0 -108 115q-8 72 -277 75q-39 -114 -88 -266q29 -2 56 0q457 20 456 -286q0 -29 -8 -95q-18 -141 -225 -225q-197 -80 -475 -80q-31 -125 -74 -178q-16 -4 -43 -4q-70 0 -119 27q-66 33 -65 98q0 37 22 84 q-227 53 -350 227q-4 4 -4 12zM459 991q6 -55 149 -94q41 123 76 225q-236 -23 -225 -131zM729 430q285 6 352 143q4 10 4 19q0 72 -276 98z" />
<glyph unicode="%" horiz-adv-x="1513" d="M0 1036q-8 -106 76 -182q74 -63 162 -70q188 -12 292 93q59 57 117 114q60 68 60 150q0 96 -72 188q-78 102 -195 117q-135 16 -276 -109q-150 -129 -164 -301zM4 127q0 16 8 29q29 43 344 370q334 346 342 357q59 35 318 282q266 256 270 258q41 31 129 31 q119 0 119 -72q0 -29 -21 -65q-55 -96 -428 -426q-381 -336 -409 -377q0 12 -223 -213q-230 -229 -277 -301q-6 -10 -24 -10q-39 0 -93.5 47t-54.5 90zM229 1085q1 16 9 41q29 86 131 76q72 -8 71 -76q0 -92 -121 -90q-90 0 -90 49zM748 252q-8 -106 75 -182q74 -63 162 -70 q188 -12 293 92q59 57 117 115q59 67 59 149q0 96 -72 189q-78 102 -194 117q-135 16 -277 -109q-150 -129 -163 -301zM977 301q0 16 8 41q29 86 131 76q72 -8 72 -76q0 -92 -121 -90q-90 0 -90 49z" />
<glyph unicode="&#x26;" horiz-adv-x="1157" d="M27 416q0 227 260 262q-195 111 -195 278q0 147 141 264t334 119q80 0 170 -6q111 250 142 281q18 18 43 18q51 0 112 -73q55 -68 56 -97q0 -6 -7 -4q-14 6 -84 -162q246 -51 240 -129q-8 -98 -139 -147q-78 51 -185 70q-39 -100 -86 -226q43 0 80 2q-35 -188 -73 -180 q-14 2 -76 -6l-92 -250q164 66 268 166q6 6 14 6q37 0 95.5 -66.5t58.5 -113.5q0 -18 -12 -31q-33 -33 -208 -109.5t-319 -121.5q-86 -207 -135 -269q-16 -4 -43 -4q-68 0 -119 27q-66 33 -65 98q0 37 22 84q2 4 19 47q-104 31 -160.5 107t-56.5 166zM252 426q0 -47 84 -57 l88 217q-172 -76 -172 -160zM305 997q0 -63 162 -114q25 -8 72 -13q53 128 98 232h-21q-143 -2 -227 -32t-84 -73z" />
<glyph unicode="'" horiz-adv-x="370" d="M0 1176q0 76 51 127q74 74 82 79q53 43 103 43q23 0 45 -8q117 -45 116 -145q0 -29 -10 -52.5t-16 -23.5q8 0 -35 -72q-47 -82 -100 -135q-74 -74 -146 -74q-39 0 -78 25q90 88 90 137q0 54 -98 60q-4 18 -4 39z" />
<glyph unicode="(" horiz-adv-x="997" d="M2 373q0 -201 164 -297q131 -76 350 -76q125 74 125 168q0 37 -14 90q-119 0 -205 47q-105 57 -105 166q0 266 220 510q207 229 413 242q49 2 82 49q29 41 37 94l-65 123q-397 0 -705 -356q-297 -344 -297 -760z" />
<glyph unicode=")" horiz-adv-x="1081" d="M6 51q0 -43 35 -51q199 0 403 63q246 76 344 203q342 440 342 717q0 227 -160.5 368.5t-387.5 141.5q-88 -43 -88 -158q0 -106 67 -110q117 0 209 -51q113 -63 113 -170q0 -143 -103 -320q-106 -184 -266 -301q-178 -133 -362 -125q-43 -4 -94.5 -78t-51.5 -129z" />
<glyph unicode="*" horiz-adv-x="1026" d="M12 848q0 16 8.5 22.5t288.5 36.5q-84 154 -172 310q35 53 166 53q129 0 146 -45q29 -59 65 -131l66 131q16 45 145 45q131 0 166 -53q-35 -61 -152 -273q184 8 189.5 -7t46.5 -68.5t41 -80.5q0 -29 -37 -43q-49 -20 -266 -38q150 -285 178 -310q4 -4 4 -8 q0 -35 -172 -35q-145 0 -160 43q6 12 -49 123q-55 -111 -49 -123q-14 -43 -160 -43q-172 0 -172 35q0 4 4 8q29 23 166 283q-127 -4 -164 0q-4 -16 -65.5 55.5t-61.5 112.5z" />
<glyph unicode="+" horiz-adv-x="1003" d="M12 848q0 16 10.5 24.5t403.5 47.5q82 160 154 305q16 45 145 45q131 0 166 -53q-35 -61 -152 -273q184 8 189.5 -7t46.5 -68.5t41 -80.5q0 -29 -37 -43q-61 -27 -373 -49q-150 -281 -141 -299q-14 -43 -160 -43q-172 0 -172 35q0 4 4 8q29 23 166 283q-127 -4 -164 0 q-4 -16 -65.5 55.5t-61.5 112.5z" />
<glyph unicode="," horiz-adv-x="522" d="M6 135q0 76 51 127q74 74 82 80q53 43 103 43q23 0 45 -8q117 -45 116 -146q0 -29 -10 -52t-16 -23q8 0 -35 -72q-47 -82 -100 -135q-74 -74 -146 -74q-39 0 -78 25q90 88 91 137q-1 53 -99 59q-4 18 -4 39z" />
<glyph unicode="-" d="M12 848q0 16 9.5 23t326.5 40q346 35 492 35q86 0 90 -12t45 -65.5t41 -80.5q0 -29 -37 -43q-68 -29 -422 -51q-334 -23 -418 -14q-4 -16 -65.5 55.5t-61.5 112.5z" />
<glyph unicode="." horiz-adv-x="520" d="M6 135q0 76 51 127q74 74 82 80q53 43 103 43q23 0 45 -8q117 -45 116 -146q0 -29 -10 -52t-16 -23q6 0 -31 -41q-43 -45 -88 -76q-63 -41 -117 -41q-37 0 -67 18q-68 41 -68 119z" />
<glyph unicode="/" horiz-adv-x="1431" d="M4 127q0 16 8 29q29 43 344 370q334 346 342 357q59 35 318 282q266 256 270 258q41 31 129 31q119 0 119 -72q0 -29 -21 -65q-55 -96 -428 -426q-381 -336 -409 -377q0 12 -223 -213q-230 -229 -277 -301q-6 -10 -24 -10q-39 0 -93.5 47t-54.5 90z" />
<glyph unicode="0" horiz-adv-x="1556" d="M2 373q0 -201 164 -297q131 -76 350 -76q199 0 404 63q246 76 344 203q342 441 342 717q0 227 -161 368.5t-388 141.5q-264 0 -514 -172q-238 -162 -387 -420q-154 -264 -154 -528zM317 471q0 283 218.5 518.5t500.5 235.5q117 0 209 -51q113 -63 113 -170 q0 -209 -261 -477.5t-470 -268.5q-119 0 -205 47q-105 57 -105 166z" />
<glyph unicode="1" horiz-adv-x="743" d="M0 115q266 545 418 909q0 2 -4 2q-10 0 -92 -22.5t-101 -22.5q-6 0 -8 2q-8 14 25 197q78 63 139 108q147 111 188 121q72 16 123 16q121 0 107 -82q-20 -115 -70 -235q-39 -94 -53 -109q-92 -186 -185 -372q-207 -414 -225 -496q-39 -47 -80 -94t-100 -37 q-78 13 -82 115z" />
<glyph unicode="2" horiz-adv-x="1339" d="M6 219q0 -84 109 -219q705 150 938 150q29 0 63.5 -9.5t44.5 -9.5q45 0 78 64q29 57 29 118q0 59 -31 64q-66 8 -377 -8q-322 -16 -328 -33l226 102q258 137 432 281q236 195 244 346q8 174 -105 301q-109 119 -254 119q-51 0 -100 -19q-184 -61 -371 -123 q-279 -106 -278 -206q0 -51 53 -113.5t102 -62.5q15 0 27 6q59 33 221 98q170 70 246 90q59 16 112 16q121 0 121 -73q0 -47 -53 -116t-569 -345q-504 -268 -570 -375q-10 -18 -10 -43z" />
<glyph unicode="3" horiz-adv-x="1261" d="M0 180q8 98 139 148q4 -57 78 -91t178 -34q123 0 228 43q332 135 331 227q0 61 -143 109q-88 29 -442 16q35 188 73 180q27 -6 179 49q170 63 282 140q150 96 146 180q-4 86 -148 86q-119 0 -264 -59q-158 -66 -268 -175q-6 -6 -15 -6q-37 0 -95 66.5t-58 114.5 q0 18 12 30q43 43 297 146.5t350 115.5q37 4 70 4q164 0 262 -92q86 -82 86 -198q0 -193 -287 -394q193 -111 193 -286q0 -217 -230 -369q-207 -137 -438 -137q-188 0 -354 60.5t-162 125.5z" />
<glyph unicode="4" horiz-adv-x="1282" d="M8 623q-14 -33 76 -117t121 -72q35 14 270.5 56t253.5 34q29 -14 29 -51q0 -39 -29 -96q-35 -68 -70 -135q-61 -123 -77 -185q-16 -63 86 -63q109 0 145.5 58.5t177.5 463.5q18 8 41 8t172 41q49 164 49 217q0 20 -8 21q-30 0 -147 -8l262 557q8 16 8 28q0 49 -88 50 q-90 0 -139 -43.5t-152 -317.5q-96 -254 -96 -274q0 -6 -215 -47q-223 -41 -293 -41q-25 0 -25 6q10 80 86 184q47 63 152 178q98 106 124 147.5t26 71.5q0 63 -103 64q-139 0 -194 -72q-102 -133 -205 -266q-160 -221 -238 -397z" />
<glyph unicode="5" horiz-adv-x="1388" d="M-4 182q0 -14 4 -26q10 -27 168 -80q190 -66 373 -66q291 0 483 170q80 72 139 166q74 121 74 219q0 174 -229 246q-84 27 -183 27q-82 0 -309 -43q-51 -10 -51 41q0 76 100 254q436 53 645 53q92 0 125 -13q10 -4 21 -4q47 0 89 60.5t42 124.5q0 53 -37 82 q-16 12 -102 12q-238 0 -881 -78q-324 -594 -320 -639q8 -76 189 -180q309 84 465 84q80 0 100 -27q31 -39 31 -92q0 -82 -70 -137q-86 -66 -256 -66q-141 0 -270 21q-94 14 -150 35q-4 4 -6 10q-184 -68 -184 -154z" />
<glyph unicode="6" horiz-adv-x="1267" d="M6 332q0 -121 40 -202t110 -97q121 -29 225 -29q205 0 479 111q223 90 311 168q104 92 105 235q0 37 -6 80q-39 258 -314 258q-104 0 -243 -37q-86 -23 -207 -80q-141 -66 -219 -133q55 203 305 348q242 139 508 140q45 0 88 -4q47 23 47 161q0 115 -47 166 q-401 -6 -752 -295q-240 -199 -330 -385q-100 -207 -100 -405zM289 307q-1 29 30 62q82 90 117 116q78 57 244 121q119 45 250 45q160 0 160 -110q0 -84 -175 -168q-135 -66 -325 -111q-90 -23 -162 -22q-139 0 -139 67z" />
<glyph unicode="7" horiz-adv-x="1099" d="M16 106q0 41 360.5 528.5t401.5 487.5q2 0 -248 -43q-299 -53 -333 -88q-2 -2 -4 -2q-23 0 -53.5 93.5t-30.5 168.5q-1 80 38 92q74 25 515.5 87.5t459.5 52.5q55 -31 56 -185q0 -82 -23 -127q-12 -23 -432 -538q-453 -553 -477 -584q-33 -43 -86 -43q-49 0 -96.5 36 t-47.5 64z" />
<glyph unicode="8" horiz-adv-x="1433" d="M0 336q0 -340 287 -340q31 0 65 4q285 33 621 172q401 166 395 328q-6 156 -57 284q-45 117 -107 166q287 221 287 373q0 94 -123 143q-41 16 -178 17q-205 0 -402 -35q-240 -43 -337 -121q-217 -172 -218 -319q0 -121 164 -193q-182 -59 -303 -244q-94 -143 -94 -235z M322 403q0 55 47 112.5t112 84.5q252 102 400 102q53 0 86 -14q78 -35 77 -92q0 -66 -96 -150q-76 -66 -145 -94q-55 -25 -111 -47q-92 -33 -166 -33q-91 1 -161 50q-43 31 -43 81zM551 1042q0 102 201 170q166 53 292 54q123 0 109 -54q-31 -141 -223 -221 q-132 -53 -312 -71q-68 61 -67 122z" />
<glyph unicode="9" horiz-adv-x="1249" d="M16 844q0 -145 129 -236q121 -84 297 -84q80 0 156 21q84 23 186 71q154 76 217 166q-61 -225 -223 -370q-174 -160 -405 -160q-37 0 -74 4q-47 -23 -47 -121q0 -84 47 -135q281 4 494 160q158 117 274 313q13 23 119 240q115 233 114 432q0 221 -133 252 q-104 25 -219 24q-248 0 -542 -118q-217 -88 -302 -189q-68 -82 -86 -233q-2 -18 -2 -37zM227 909q0 80 135 152q27 12 287 119q84 35 172 34q86 0 144.5 -31.5t58.5 -74.5q0 -24 -20 -47q-152 -166 -433 -295q-20 -10 -104 -10q-240 0 -240 153z" />
<glyph unicode=":" horiz-adv-x="530" d="M6 135q0 76 51 127q74 74 82 80q53 43 103 43q23 0 45 -8q117 -45 116 -146q0 -29 -10 -52t-16 -23q6 0 -31 -41q-43 -45 -88 -76q-63 -41 -117 -41q-37 0 -67 18q-68 41 -68 119zM102 678q1 76 52 127q74 74 82 80q53 43 102 43q23 0 45 -8q117 -45 117 -146 q0 -29 -10.5 -52.5t-16.5 -23.5q6 0 -31 -41q-43 -45 -88 -75q-63 -41 -116 -41q-37 0 -68 18q-68 41 -68 119z" />
<glyph unicode=";" horiz-adv-x="530" d="M6 135q0 76 51 127q74 74 82 80q53 43 103 43q23 0 45 -8q117 -45 116 -146q0 -29 -10 -52t-16 -23q8 0 -35 -72q-47 -82 -100 -135q-74 -74 -146 -74q-39 0 -78 25q90 88 91 137q-1 53 -99 59q-4 18 -4 39zM102 678q1 76 52 127q74 74 82 80q53 43 102 43q23 0 45 -8 q117 -45 117 -146q0 -29 -10.5 -52.5t-16.5 -23.5q6 0 -31 -41q-43 -45 -88 -75q-63 -41 -116 -41q-37 0 -68 18q-68 41 -68 119z" />
<glyph unicode="&#x3c;" horiz-adv-x="1126" d="M10 778q0 16 10 25q18 14 416 164q422 160 496 159q10 0 12 -4q4 -12 45 -65t41 -80q0 -29 -37 -43q-141 -61 -442 -176q92 -10 250 -62q152 -49 156 -62t49 -77q39 -55 38 -80q0 -35 -73 -35q-100 0 -416.5 84t-417.5 84q-4 -16 -65.5 55.5t-61.5 112.5z" />
<glyph unicode="=" horiz-adv-x="983" d="M-2 625q0 16 9.5 23t326.5 40q346 35 491 35q86 0 90.5 -12.5t45 -65.5t40.5 -80q0 -29 -36 -43q-68 -29 -422 -51q-334 -23 -418 -14q-4 -16 -65.5 55.5t-61.5 112.5zM51 981q0 16 9.5 23t326.5 40q346 35 492 35q86 0 90 -12t45 -65.5t41 -79.5q0 -29 -37 -43 q-68 -29 -422 -52q-334 -23 -418 -14q-4 -16 -65.5 55.5t-61.5 112.5z" />
<glyph unicode="&#x3e;" horiz-adv-x="1005" d="M10 553q0 16 9.5 23.5t160.5 64.5q182 70 312 104q-158 49 -349 101q-4 -18 -66.5 78t-62.5 143q1 19 11 27t439 -96.5t439 -135.5q4 -12 45 -65.5t41 -79.5q0 -29 -37 -43q-719 -299 -815 -289q-4 -16 -65.5 55.5t-61.5 112.5z" />
<glyph unicode="?" horiz-adv-x="1220" d="M0 0h385h-385zM6 135q0 76 51 127q74 74 82 80q53 43 103 43q23 0 45 -8q117 -45 116 -146q0 -29 -10 -52t-16 -23q6 0 -31 -41q-43 -45 -88 -76q-63 -41 -117 -41q-37 0 -67 18q-68 41 -68 119zM68 1284q0 14 14 19q117 51 235 102q238 88 461 78q182 -8 355 -119 q160 -102 170 -184q4 -31 4 -60q0 -250 -332 -334q-8 -2 -316 -51q-233 -39 -296.5 -79t-124.5 -140q-145 78 -132 139q15 62 66 115q86 49 164 84q184 88 287 104q141 18 282 39q113 20 160 68q29 29 29 70q0 68 -72 120q-82 59 -223 60q-33 0 -70 -4q-125 -12 -321 -72 q-170 -51 -211 -76q-4 -2 -9 -2q-29 0 -74.5 47t-45.5 76z" />
<glyph unicode="@" horiz-adv-x="1548" d="M2 373q0 264 154 528q150 258 387 420q250 172 514 172q227 0 388 -141.5t161 -368.5q0 -111 -54 -246q-55 -143 -118 -170q-170 -147 -488 -147q-78 0 -164 10q-41 4 -84 10q-88 6 -161 70q-84 76 -76 182q14 172 164 301q141 125 276 109q117 -14 190.5 -84t73.5 -180 q0 -55 -20 -117q23 -2 41 -2q102 0 139 72q33 61 33 213q0 106 -113 170q-92 51 -209 51q-283 0 -501 -235.5t-218 -518.5q0 -109 105 -166q86 -47 205 -47q252 0 364 68q23 6 58 6q78 0 147 -25q78 -29 78 -65q0 -8 -4 -17q-96 -125 -348 -182q-182 -43 -406 -43 q-219 0 -350 76q-164 96 -164 297zM690 741q0 16 8 41q29 86 131 76q72 -8 72 -76q0 -92 -121 -90q-90 0 -90 49z" />
<glyph unicode="A" horiz-adv-x="1468" d="M0 197q104 227 616 731q505 497 626 497h3q25 -2 56.5 1.5t37.5 3.5q51 0 119 -78q27 -31 27 -154q0 -238 -80 -678q-78 -422 -111 -438q-39 -20 -108 -21q-86 0 -105 37q-6 14 -6 39q0 55 31 150q-88 24 -194 24h-9q-160 0 -330 -49q-143 -41 -221 -90l-172 -172 q-196 20 -196 130q0 32 16 67zM680 549l377 24q98 51 98 74q0 4 15.5 117t15.5 156q0 29 -6 30q-23 10 -47 11q-96 0 -240 -150q-78 -82 -213 -262z" />
<glyph unicode="B" horiz-adv-x="1433" d="M-8 262q0 -123 88 -194.5t219 -71.5q27 0 53 4q285 33 621 172q395 164 395 323q0 145 -57 289q-45 117 -107 166q287 221 287 373q0 94 -123 143q-92 37 -346 37q-452 0 -571 -176q-221 -471 -451 -991q-8 -39 -8 -74zM369 387q0 74 82 227q264 90 419 91q61 0 97 -17 q78 -35 77 -92q0 -66 -96 -150q-76 -66 -145 -94q-188 -78 -264 -78q-107 0 -162 78q-8 12 -8 35zM596 961l133 292q162 55 289 56q113 0 113 -46q0 -5 -1 -10q-33 -141 -223 -219q-131 -55 -311 -73z" />
<glyph unicode="C" horiz-adv-x="1265" d="M6 504q0 -184 74 -322q82 -150 227 -182q57 -12 125 -12q199 0 404 90q215 94 299 233q27 45 26 109q0 104 -51 178l-246 -98q2 -11 2 -21q0 -85 -104 -147q-106 -61 -242 -62q-135 0 -188 66q-78 98 -78 219q0 74 29 150q98 180 249 354q180 209 291 219q18 2 35 2 q192 0 252 -240q8 -3 18 -3q43 -1 118 49q93 60 110 135q0 109 -133 198q-143 96 -351 97q-262 0 -503 -267q-104 -117 -275 -397q-88 -145 -88 -348z" />
<glyph unicode="D" horiz-adv-x="1486" d="M2 174q0 49 14 96q412 1049 426 1041q51 82 291 139q168 42 228 42q8 0 14 -1q317 -33 465 -107q181 -91 180 -253q0 -68 -31 -148q-125 -317 -532 -655q-121 -100 -299 -170q-170 -63 -479 -133q-59 -12 -107 -13q-170 0 -170 162zM391 410q0 -45 74 -45q23 0 51 4 q72 12 385 229q172 118 309 266q133 143 133 198q0 111 -106 161q-51 24 -111 24q-17 0 -36 -2q-213 -20 -228 -24q-113 -27 -182 -123q-45 -63 -287 -672q-2 -8 -2 -16z" />
<glyph unicode="E" horiz-adv-x="1347" d="M-4 150q0 10 4 22q63 209 256 664q248 588 342 614q106 31 348 70q272 45 395 45q70 0 76 -17q27 -59 27 -127q0 -76 -43 -102q-33 -20 -348 -55q-303 -35 -307.5 -50.5t-51.5 -123.5q-43 -98 -39 -99h-1q0 2 190 35q200 35 282 35q49 0 53.5 -12.5t45.5 -65.5t41 -80 q0 -29 -37 -43q-55 -23 -389 -119q-322 -92 -324 -94q-8 -8 -147 -319q506 215 655 215q29 0 41 -11q41 -37 70.5 -99t29.5 -107q0 -35 -18 -47q-43 -29 -459 -158q-393 -122 -458 -122q-6 0 -9 1q-225 63 -225 150z" />
<glyph unicode="F" horiz-adv-x="1347" d="M-4 143q0 15 4 29q63 209 256 664q248 588 342 614q106 31 348 70q272 45 395 45q70 0 76 -17q27 -59 27 -127q0 -76 -43 -102q-33 -20 -348 -55q-303 -35 -307.5 -50.5t-51.5 -123.5q-43 -98 -39 -99h-1q0 2 190 35q200 35 282 35q49 0 53.5 -12.5t45.5 -65.5t41 -80 q0 -29 -37 -43q-55 -23 -389 -119q-322 -92 -324 -94q-8 -8 -289 -608q-35 -35 -82 -35q-57 0 -103 43t-46 96z" />
<glyph unicode="G" horiz-adv-x="1613" d="M4 461q0 -172 96 -279q59 -63 189 -116q154 -63 311 -64q272 0 475 188q90 84 213 273q94 141 164 162q27 8 197 163q-59 178 -156 179q-16 0 -33 -6q-244 -84 -614 -115q-59 -14 -105 -29q-109 -34 -125 -61q-6 -8 -6 -23q0 -45 41 -82q47 -47 127 -47q25 0 51 4 q168 31 254 33q0 -84 -135 -229q-152 -164 -291 -164q-178 0 -291.5 94t-113.5 233q0 137 110 271q94 113 162 170q88 74 224 141q117 59 176 76q72 20 225 31q189 -123 189 -165q0 -4 -1 -7q23 16 43 30q37 35 99 101q23 23 55 57q-45 76 -100 129q-131 129 -285 133 q-17 1 -34 1q-186 0 -392 -79q-291 -111 -467 -331q-74 -92 -150 -265q-102 -229 -102 -407z" />
<glyph unicode="H" horiz-adv-x="1630" d="M4 106q0 -39 34 -62.5t77 -23.5q66 0 90 46q267 491 294 491h1q2 -1 9 -1q35 0 206 17q223 23 286 23q39 0 39 -9q0 -38 -180 -440q101 -153 137 -153q6 0 9.5 4t375.5 704q358 670 363 666q1 5 1 10q0 39 -54 77q-60 42 -125 42q-66 0 -92 -47q-305 -563 -305 -596 q0 -2 1 -2q-63 0 -284 -12q-297 -16 -297 -37q0 -2 1 -2q8 0 111 211q86 178 175 356q1 3 1 5q0 18 -42 50q-55 41 -113 41q-78 0 -125 -88q-289 -604 -582 -1220q-12 -27 -12 -50z" />
<glyph unicode="I" horiz-adv-x="1349" d="M0 0q20 84 45 145q55 145 111 150h102q63 0 97 27.5t200 337.5q240 450 240 489q0 14 -78 14q-111 0 -332 -24q45 98 92 196q78 136 195 140q118 5 300 5t429 -5q45 -66 45 -185q0 -102 -37 -119q-78 -33 -242 -33q-29 0 -61 1q-427 -766 -427 -817q0 -3 1 -3q6 -4 29 -4 q66 0 241 29q-6 -74 -26 -129q-49 -131 -162 -141q-164 -14 -762 -74z" />
<glyph unicode="J" horiz-adv-x="1470" d="M8 399q0 -170 74 -211q76 -51 149 -102q141 -82 283 -82q199 0 395 160q61 49 237 414q166 346 166 429q0 5 -1 9q32 74 56 74h1q13 -1 25 -1q78 0 133 54q47 47 47 78q0 20 2 51v41q0 51 -33 66.5t-151 15.5q-49 0 -146 -2q-356 -10 -434 -181q-25 -53 -25 -94 q0 -96 146 -96q20 0 43 2q41 4 41 -18q0 -10 -8 -23q-70 -176 -123 -303q-129 -309 -156 -336q-80 -80 -194 -80q-109 0 -199 55q-39 25 -39 158v12q0 136 22 199q1 4 1 8q0 25 -38 57q-46 38 -102 38q-72 0 -114 -78q-20 -35 -37 -125q-20 -100 -21 -189z" />
<glyph unicode="K" horiz-adv-x="1789" d="M0 188q-1 -2 -1 -6q0 -24 76 -98q87 -84 152 -84q31 0 52 25q76 92 319 573q639 -465 639 -515q0 -13 16 -13q51 0 146.5 56t91.5 103q-6 55 -260 285q-250 223 -281 223q-12 0 -12 11q0 12 20 38q960 483 960 562q0 2 -1 4q-20 49 -86 91t-111 42q-10 0 -18 -3 t-404 -222q-351 -196 -386 -196q-2 0 -3 1q-23 23 -41 8q70 160 148 369q1 5 1 9q0 43 -67 79q-66 33 -135 33q-51 0 -61 -23q-115 -268 -201 -450q-197 -414 -258 -435q-77 -25 -139 -80q-52 -46 -52 -80q0 -6 2 -12q14 -45 25 -123q-57 -74 -131 -172z" />
<glyph unicode="L" horiz-adv-x="1091" d="M2 121q0 -66 66 -98q51 -27 118 -27q27 0 43 4l402 78q356 74 377 119q37 72 73 143q53 102 54 137q0 8 -5 15q-33 43 -155 43q-66 0 -123 -19q-4 -43 -18 -74q-35 -78 -113 -82q-59 -4 -137 -16q-70 -12 -86 -12q-31 0 -31 24q0 20 16 54q470 925 515 925h1q6 -2 7 4 q0 29 -56 97q-60 73 -111 73h-1q-25 0 -43 -18q-57 -57 -414 -666q-319 -547 -356 -620q-23 -47 -23 -84z" />
<glyph unicode="M" horiz-adv-x="2037" d="M6 213q0 -82 40 -145.5t87 -63.5q33 0 55 37q16 25 224 448q178 362 211 363q86 0 86 -86q0 -20 -4 -45q-8 -94 -41 -287q-37 -152 -37 -209q0 -123 135 -135q27 -2 47 -2q86 0 139 59q39 45 142 238q41 78 393 401l41 -49q-174 -438 -174 -557q0 -27 10 -33 q167 -120 258 -120h2q37 0 43 30q18 104 233 686q225 618 275 625q12 2 12 8q0 29 -241 148q-434 -281 -984 -910q-5 205 -5 331q0 202 13 202h1q12 -4 27.5 45t15.5 98q0 94 -60 103q-76 12 -131 12q-119 0 -174 -55.5t-321 -497.5q-279 -461 -308 -565q-10 -37 -10 -74z " />
<glyph unicode="N" horiz-adv-x="1628" d="M8 156q125 307 250 612q264 604 356 616q18 2 62.5 25t66.5 23q25 0 43 -23q57 -68 136 -371q70 -268 110 -530q2 -8 4 -8q23 0 226.5 481t236.5 485q17 2 35 2q51 0 113 -16q98 -27 98 -76q0 -35 -311 -647q-295 -579 -295 -621l2 -10q0 -16 -28 -32.5t-66 -16.5 q-102 0 -154 123q-12 29 -115 403q-79 285 -122 285h-1q-45 -4 -73 -51q-16 -31 -33 -64q-14 -23 -150 -366q-137 -350 -137 -379q0 -20 -55 -20q-74 0 -131 38q-68 46 -68 129v9z" />
<glyph unicode="O" horiz-adv-x="1556" d="M2 373q0 -201 164 -297q131 -76 350 -76q199 0 404 63q246 76 344 203q342 441 342 717q0 227 -161 368.5t-388 141.5q-264 0 -514 -172q-238 -162 -389.5 -422t-151.5 -526zM317 471q0 283 218.5 518.5t500.5 235.5q117 0 209 -51q113 -63 113 -170q0 -209 -261 -477.5 t-470 -268.5q-119 0 -205 47q-105 57 -105 166z" />
<glyph unicode="P" horiz-adv-x="1609" d="M-4 164q0 -51 51 -109q58 -67 129 -67h2q70 0 133 69q27 29 144 232q106 184 118 186q207 18 490 158q266 131 459 297q202 173 202 283q0 17 -4 32q-51 156 -245 232q-143 55 -324 55q-70 0 -111 -8q-438 -95 -467 -189q-10 -37 -12 -133q-2 -86 -20 -121 q-98 -215 -199 -430q-201 -395 -334 -463q-12 -6 -12 -24zM696 790q0 34 95 207q96 176 118 199q90 84 320 84q215 0 237 -51q2 -4 2 -8q0 -41 -139 -158q-96 -80 -190 -145q-66 -45 -209.5 -93.5t-206.5 -48.5q-27 0 -27 14z" />
<glyph unicode="Q" horiz-adv-x="1576" d="M2 373q0 264 154 528q150 258 387 420q250 172 514 172q227 0 388 -141.5t161 -368.5q-1 -248 -263 -608q113 -102 119 -189v-6q0 -46 -62 -98q-67 -55 -116 -55q-27 0 -31 24q-10 66 -67 139q-121 -92 -328 -145q-180 -45 -342 -45q-219 0 -350 76q-164 96 -164 297z M317 471q0 -109 105 -166q86 -47 205 -47q139 0 327 141q-66 45 -145 95q-4 6 -4 16q0 33 24 59q33 31 89 31q41 0 94 -18q35 -12 94 -45q252 262 252 467q0 106 -113 170q-92 51 -209 51q-283 0 -501 -235.5t-218 -518.5zM1186 190z" />
<glyph unicode="R" horiz-adv-x="1609" d="M-4 164q0 18 12 24q133 68 334 463q100 215 199 430q18 35 20 121q2 96 12 133q29 94 467 189q41 8 111 8q180 0 324 -55q195 -76 245 -232q4 -14 4 -31q0 -119 -225 -305q-217 -178 -500 -307q449 -207 463 -416v-6q0 -47 -62 -98q-66 -55 -116 -55q-27 0 -31 24 q-27 193 -479 465q-111 -33 -201 -41q-12 -2 -118 -186q-117 -203 -144 -232q-62 -69 -131 -69h-2q-72 0 -131 67q-51 57 -51 109zM723 776q63 0 206.5 48t209.5 94q94 66 190 145q139 116 139 158q0 5 -2 8q-23 51 -237 51q-229 0 -320 -84q-23 -23 -118 -199 q-95 -174 -95 -207q0 -14 27 -14z" />
<glyph unicode="S" horiz-adv-x="1441" d="M-4 266q0 -8 4 -12q180 -254 623 -254q258 0 499 168q225 158 246 315q8 63 8 103q0 357 -411 357q-23 0 -47 -1q-219 -10 -256 -10q-197 0 -203 59v9q0 70 123 139l196 98q63 39 164 39q100 0 187.5 -35t91.5 -78q12 -114 106 -114h2q63 0 121.5 53t58.5 127 q0 37 -18 74q-92 188 -440 188q-152 0 -310 -37q-141 -31 -200 -70q-88 -55 -179 -110q-104 -76 -159 -164q-72 -113 -80 -274q-2 -63 90 -111q82 -43 164 -43q25 0 41 6q43 14 200 14q188 0 316 -26q148 -32 148 -93q0 -5 -1 -10q-33 -174 -108 -247t-210 -73q-16 0 -34 1 q-434 27 -459 164q-4 23 -32 22q-53 0 -147.5 -67.5t-94.5 -106.5z" />
<glyph unicode="T" horiz-adv-x="1191" d="M20 113q-2 6 -2 15q0 94 187 503q201 440 232 440h1q4 4 8 6q-4 8 -18 23q-6 4 -14 12q-78 -6 -138 -12q-145 -18 -182 -45q-6 -4 -10 -4q-49 0 -49 227q0 37 2 47q238 39 475 78q463 72 651 72q37 0 62 -2q51 -6 51 -154q0 -104 -20.5 -117.5t-432.5 -56.5 q-91 -76 -91 -88q0 -1 1 -2q-96 -72 -274 -492l-176 -450q-100 -113 -162 -113q-66 0 -101 113z" />
<glyph unicode="U" horiz-adv-x="1603" d="M4 313q0 -121 78 -222t166 -101q25 0 47 10q403 166 508 166q47 0 49 -27q6 -80 154 -80q63 0 133 15v7q0 145 225 667q238 545 340 579q14 4 14 19q0 33 -69.5 84t-126.5 51q-37 0 -56 -23q-61 -76 -284 -463q-231 -401 -231.5 -445t-188 -113.5t-316.5 -69.5 q-109 0 -108 82q0 147 197 555q182 379 219 397q6 4 6 12q0 25 -45 60q-52 36 -104 36h-3q-80 0 -125 -92q-211 -438 -266 -559q-197 -420 -209 -498q-4 -23 -4 -47z" />
<glyph unicode="V" horiz-adv-x="1300" d="M8 156q0 -14 8 -17q23 -8 295 -139q63 131 129 260q147 287 279 475q180 264 305 305q195 63 262 131q31 31 107 172l-164 156q-188 -143 -377 -287q-170 -135 -274 -272q-127 -162 -242 -424q1 141 1 260q0 614 -26 633q-6 4 -20 4q-59 0 -133 -43q-77 -46 -77 -96 q0 -6 1 -12q20 -125 20 -590q0 -365 -28 -393q-66 -66 -66 -123z" />
<glyph unicode="W" horiz-adv-x="1949" d="M8 160q0 199 135 706q131 486 160 486q250 -53 250 -111q0 -6 -4 -12q-27 -43 -101.5 -279.5t-74.5 -275.5q0 -6 4 -2q176 199 352 397q237 267 267 267q2 0 3 -1q6 -4 21 -4q57 0 217 62l8 -746q162 215 324 428q315 408 346 408h2q172 -86 172 -140q0 -16 -397 -579 q-374 -531 -374 -588q0 -3 1 -4q2 -4 2 -8q0 -59 -322 -123q-23 604 -81 852q0 4 -3 4q-25 1 -267 -327q-268 -362 -337 -513q-23 -49 -129 -49q-135 0 -166 82q-8 23 -8 70z" />
<glyph unicode="X" horiz-adv-x="1654" d="M4 127q0 16 8 29q29 43 287 276q270 244 287 264q41 47 41 123q0 47 -17 74l-102 160q-86 135 -86 159q0 31 65.5 93.5t112.5 62.5q16 0 27 -8q76 -59 166 -227q47 -95 96 -191q2 -4 8 -4q41 0 338 248t317 248q4 0 31 2h43q145 0 146 -72q0 -29 -23 -70 q-51 -90 -395 -331q-318 -224 -318 -266q0 -48 8 -76q4 -18 25 -56q121 -225 180 -270q10 -8 11 -25q0 -45 -77 -118.5t-122 -73.5q-10 0 -17 4q-49 35 -139 176q-100 150 -123 242q0 1 -1 1q-16 0 -275 -206q-283 -225 -330 -295q-8 -10 -24 -10q-39 0 -93.5 47t-54.5 90z " />
<glyph unicode="Y" horiz-adv-x="1298" d="M2 209q0 -45 55.5 -121t98.5 -76q20 0 32 21q135 233 453 631q358 449 514 532q102 55 169 126t67 130q0 16 -7 31q-39 100 -114 100q-96 0 -303 -207q-262 -262 -344 -409q-2 -2 -5 -2q-29 0 -149.5 209.5t-124.5 259.5q-4 36 -49 36h-2q-51 0 -100 -40 q-53 -49 -54 -119q0 -96 123 -301q111 -188 139 -199q8 -2 9 -16q-1 -19 -17 -50q-92 -147 -164 -253q-172 -256 -213 -263q-14 -2 -14 -20z" />
<glyph unicode="Z" horiz-adv-x="1374" d="M8 188q33 129 477 545q423 397 487 397h3q6 -1 11 -1q34 0 34 34q0 12 -4 25q-127 -31 -225 -55q-233 -63 -275 -101q-8 -6 -18 -6q-41 0 -95.5 82t-54.5 141q0 25 12 37l123 57q758 164 868 164h9q47 -4 80 -72.5t33 -140.5q0 -55 -21.5 -79.5t-425.5 -358.5 q-389 -324 -412 -364q-14 -25 -14 -46q0 -40 39 -40h2q10 0 23 4q102 31 204 61q180 51 238 51q18 0 24 -6q29 -29 62 -82q43 -70 43 -112q0 -31 -20.5 -42.5t-489.5 -127.5q-436 -109 -446 -152q-4 -16 -23 -16q-50 0 -154 84q-94 77 -95 113q0 4 1 7z" />
<glyph unicode="[" horiz-adv-x="1095" d="M-4 150q0 10 4 22q63 209 256 664q248 588 342 614q301 84 475 84q68 0 76 -21q27 -59 27 -127q0 -76 -43 -102q-33 -20 -215 -39q-168 -16 -172.5 -31.5t-51.5 -123.5q-43 -98 -39 -99q-7 -8 -286 -663q309 117 374 104q47 -8 76 -66.5t29 -119.5q0 -53 -23 -68 q-43 -29 -299 -106q-266 -84 -305 -72q-225 63 -225 150z" />
<glyph unicode="\" horiz-adv-x="956" d="M10 1210q0 31 65.5 93.5t112.5 62.5q16 0 27 -8q76 -59 166 -228q47 -94 96 -190q37 -113 215 -418q168 -287 199 -309q10 -8 10 -25q0 -45 -76.5 -118.5t-122.5 -73.5q-10 0 -16 4q-43 31 -253 413t-234 478q-51 80 -103 160q-86 134 -86 159z" />
<glyph unicode="]" horiz-adv-x="1124" d="M-6 117q0 125 49 155q33 20 227 39q182 18 186.5 32.5t121.5 295.5q113 270 108 270q7 9 148 320q-328 -117 -465 -111q-33 2 -33 39q0 49 53 139q47 84 80 105q43 29 252 96q221 72 260 59q225 -63 225 -147q0 -12 -4 -25q-70 -225 -256 -677q-246 -602 -340 -629 q-100 -29 -309 -53q-186 -25 -258 -25q-45 0 -45 117z" />
<glyph unicode="^" horiz-adv-x="804" d="M16 1057q-8 -66 31 -135.5t111 -110.5q225 217 319 217q14 0 25.5 -6t40.5 -86q33 -90 26 -137q16 -10 41 -11q55 0 132 46.5t118 105.5q2 20 2 39q0 113 -69 225q-21 31 -97 119q-68 78 -118 78q-6 0 -38 -3t-57 -1q-90 6 -467 -340zM16 1057zM158 811z" />
<glyph unicode="_" horiz-adv-x="1368" d="M4 -61q0 16 8.5 22.5t411.5 22.5q444 18 700 18q250 0 255 -15.5t46 -68.5t41 -80q0 -37 -53 -47q-111 -25 -670 -27q-518 -4 -612 7q-4 -16 -65.5 55.5t-61.5 112.5z" />
<glyph unicode="`" horiz-adv-x="370" d="M0 1176q0 76 51 127q74 74 82 79q53 43 103 43q23 0 45 -8q117 -45 116 -145q0 -29 -10 -52.5t-16 -23.5t-37 -29q-43 -37 -43 -80q0 -59 80 -122q-306 -12 -367 172q-4 18 -4 39z" />
<glyph unicode="a" horiz-adv-x="1202" d="M0 158q84 180 494 584q404 399 498 399h3q20 -2 45 0q27 4 33 4q39 0 94 -64q20 -25 21 -123q0 -190 -66 -542q-59 -336 -86 -350q-33 -16 -88 -17q-70 0 -84 29q-4 12 -4 31q0 45 25 120q-74 18 -162 19q-127 0 -264 -37q-115 -33 -176 -74l-140 -137q-155 16 -155 103 q0 26 12 55zM545 438l301 21q78 41 78 59q0 2 12 92t12 125q0 23 -4 25q-18 10 -39 10q-114 0 -360 -332z" />
<glyph unicode="b" horiz-adv-x="1116" d="M-6 211q0 -100 70.5 -156.5t175.5 -56.5q20 0 43 2q227 27 495 137q322 133 316 262q-4 125 -45 228q-37 94 -86 133q229 178 229 299q0 76 -98 115q-72 28 -264 28h-13q-363 0 -457 -141q-176 -377 -360 -793q-6 -31 -6 -57zM295 309q0 59 65 183q210 71 333 71h3 q49 0 78 -12q61 -29 62 -74q0 -53 -78 -119q-59 -53 -115 -75q-152 -63 -213 -64q-84 1 -129 64q-6 8 -6 26zM477 768l107 236q129 43 231 43q91 0 91 -36q0 -4 -1 -7q-47 -197 -428 -236z" />
<glyph unicode="c" horiz-adv-x="1011" d="M4 403q0 -147 62 -258q63 -119 180 -145q45 -10 100 -10q168 0 356 88q227 106 228 258q0 84 -41 143l-197 -80q1 -8 1 -16q0 -69 -80 -115q-89 -51 -197 -51q-109 0 -150 51q-63 78 -63 176q-1 60 22 119q80 145 201 285q143 166 233 174q14 1 27 1q153 0 203 -192 q6 -2 12 -2q33 1 95 41q74 48 89 107q0 86 -106 158q-114 77 -277 77h-4q-211 0 -403 -213q-84 -94 -219 -317q-72 -117 -72 -279z" />
<glyph unicode="d" horiz-adv-x="1232" d="M2 139q0 39 10 78q330 838 342 832q41 66 232 112q138 31 185 31h9q213 -20 326 -64q190 -74 190 -223q0 -55 -24 -119q-100 -254 -426 -524q-172 -142 -623 -242q-47 -12 -86 -12q-135 0 -135 131zM315 340q-2 -8 -2 -15q0 -34 60 -34q16 0 41 4q57 10 307 184 q137 94 247 212q107 114 107 158q0 89 -86 128q-38 20 -85 20q-16 0 -32 -2q-170 -16 -182 -18q-90 -23 -145 -98q-37 -51 -230 -539z" />
<glyph unicode="e" horiz-adv-x="1077" d="M-2 119q0 10 2 18q51 168 205 531q199 471 274 491q84 25 279 58q211 34 309 34h6q55 0 62 -12q20 -49 20 -102q0 -61 -35 -82q-27 -16 -278 -45q-242 -27 -245 -39.5t-40 -95t-33 -82.5h-1q0 3 152 29q161 28 226 28q39 0 42 -10.5t36 -53.5t33 -63q0 -23 -29 -35 q-283 -82 -569 -170q-6 -6 -119 -256q406 172 524 172q23 0 33 -8q33 -29 56.5 -79t23.5 -87q0 -27 -14 -37q-35 -23 -369 -127q-316 -97 -367 -97q-4 0 -6 1q-74 23 -108 39q-70 35 -70 80z" />
<glyph unicode="f" horiz-adv-x="1077" d="M-4 115q0 12 4 22q51 168 205 531q199 471 274 491q84 25 279 58q211 34 309 34h6q55 0 62 -12q20 -49 20 -102q0 -61 -35 -82q-27 -16 -278 -45q-242 -27 -245 -39.5t-40 -95t-33 -82.5h-1q0 2 152 29q161 28 226 28q39 0 42 -10.5t36 -53.5t33 -63q0 -23 -29 -35 q-283 -82 -569 -170q-6 -6 -232 -487q-29 -27 -65 -27q-45 0 -83 34t-38 77z" />
<glyph unicode="g" horiz-adv-x="1343" d="M4 369q0 -137 76 -224q47 -51 151 -94q123 -51 250 -51q217 0 379 154q72 66 170 215q76 115 131 131q20 6 158 131q-47 143 -125 143q-12 0 -27 -6q-209 -72 -491 -90q-47 -12 -84 -25q-86 -29 -98 -49q-4 -6 -5 -18q0 -35 31 -66q39 -37 103 -37q18 0 41 4 q133 25 202 27q0 -68 -108 -184q-121 -131 -232 -131q-143 0 -234 74.5t-91 187.5q0 109 90 217q135 162 307 248q92 47 141 59q57 16 181 27q150 -101 150 -133q0 -3 -1 -5q18 12 37 25q29 27 78 80q16 16 43 45q-37 59 -80 102q-104 104 -227 109h-18q-154 0 -324 -64 q-231 -88 -373 -264q-59 -76 -121 -213q-80 -182 -80 -325z" />
<glyph unicode="h" horiz-adv-x="1302" d="M2 86q0 -33 27.5 -51.5t62.5 -18.5q51 0 72 37q214 393 234 393h1q2 -1 9 -1q31 0 163 14q180 18 232 18q29 0 28 -6q6 -18 -143 -352q82 -123 111 -123q4 0 6 3t301 562q287 537 291 533q1 4 1 8q0 32 -43 62q-48 34 -102 34q-53 0 -73 -39q-243 -446 -243 -475 q0 -2 1 -2q-51 0 -229 -10q-238 -12 -238 -29q0 -8 229 451q8 14 -33.5 45.5t-86.5 31.5h-2q-63 0 -99 -69q-231 -485 -467 -977q-10 -20 -10 -39z" />
<glyph unicode="i" horiz-adv-x="708" d="M0 72q0 47 227 497q211 420 238 459q20 47 41 94q39 80 72 80q47 0 114.5 -69.5t67.5 -118.5q0 -14 -6 -31q-31 -82 -95 -106q-74 -27 -90 -52q-174 -387 -360 -786q-31 -41 -92 -41q-45 0 -81 22.5t-36 51.5z" />
<glyph unicode="j" horiz-adv-x="1085" d="M6 319q0 -135 60 -167q59 -41 120 -84q113 -63 226 -64q158 0 315 127q49 39 237 445q181 390 181 459v5q-4 4 7 27t11 39q0 59 -137 74q-82 -75 -219 -394q-57 -139 -100 -243q-102 -248 -123 -269q-66 -63 -156 -63q-88 0 -160 45q-30 17 -30 118v7q0 117 18 170 q6 20 -31 51t-80 31q-59 0 -92 -64q-47 -84 -47 -250z" />
<glyph unicode="k" horiz-adv-x="1431" d="M0 152q-1 -2 -1 -5q-1 -20 61 -79q70 -68 122 -68q25 0 41 20q61 72 256 459q510 -373 510 -412q0 -11 15 -12q41 0 112 43q76 45 76 82q0 43 -209 232q-199 178 -223 178q-10 0 -10 8q0 10 16 31q769 385 769 448q0 2 -1 4q-20 43 -80 79q-47 28 -76 28q-8 0 -14 -2 q-8 -2 -326 -178q-279 -157 -308 -157q-2 0 -3 1q-18 18 -33 6q55 129 119 295q1 4 1 7q0 36 -54 63q-49 28 -105 28h-4q-41 0 -49 -18q-90 -215 -160 -363q-158 -330 -206 -346q-60 -20 -110 -64q-42 -37 -42 -63q0 -5 2 -10q12 -37 18 -98q-45 -59 -104 -137z" />
<glyph unicode="l" horiz-adv-x="919" d="M0 96q0 -51 53 -78q39 -22 92 -22h5q20 0 34 4q160 31 320 61q287 59 303 97q29 57 59 114q41 82 41 109q0 45 -127 45q-53 0 -98 -12q-4 -35 -16 -62q-27 -59 -88 -63q-49 -4 -108.5 -14.5t-72.5 -10.5q-25 0 -24 21q0 18 14 43q377 741 411 741h1q6 -2 6 2q0 25 -47 81 t-88 56q-19 0 -35 -16q-45 -45 -330 -533q-256 -436 -285 -495q-20 -37 -20 -68z" />
<glyph unicode="m" horiz-adv-x="1630" d="M6 170q0 -66 32 -116t68 -50q27 0 46 29q12 20 178 358q141 291 168 291q69 0 69 -68q0 -16 -4 -36q-6 -76 -33 -230q-31 -123 -30 -168q0 -98 110 -108q15 -1 28 -1q71 0 110 35q35 35 124 201q33 63 314 322l33 -39q-139 -352 -140 -447q0 -20 8 -24q135 -96 209 -96 q29 0 35 22q14 84 185 549q182 496 221 500q10 2 10 6q0 25 -195 119q-346 -225 -786 -727q-4 154 -4 253q0 173 12 173q8 0 20 36q12 38 13 78q0 74 -47 82q-59 10 -105 10q-96 0 -139 -44t-258 -400q-223 -367 -246 -451q-6 -29 -6 -59z" />
<glyph unicode="n" horiz-adv-x="1302" d="M6 125q100 244 201 489q211 484 285 494q14 2 50 19.5t52 17.5q20 0 35 -19q47 -53 108 -297q55 -213 88 -423q2 -4 4 -7q18 0 181.5 385t189.5 390q12 1 25 1q41 0 92 -14q80 -20 80 -59q0 -29 -250 -518q-237 -463 -237 -495q0 -25 -14 -33q-24 -16 -58 -15 q-82 0 -123 96q-10 23 -92 324q-62 227 -98 227h-1q-37 -4 -59 -41q-12 -25 -27 -51q-10 -18 -119 -293q-111 -280 -111 -300q0 -19 -42 -19q-59 0 -105 30q-57 39 -55 111z" />
<glyph unicode="o" horiz-adv-x="1316" d="M2 299q0 -299 412 -299q158 0 321 51q197 59 277 162q272 352 272 573q0 182 -128 295t-310 113q-322 0 -583 -283.5t-261 -611.5zM254 377q0 227 175 414.5t398 187.5q94 0 168 -41q90 -49 90 -135q0 -168 -208.5 -383t-374.5 -215q-94 0 -164 39q-84 47 -84 133z" />
<glyph unicode="p" horiz-adv-x="1288" d="M-2 131q0 -41 41 -88q47 -53 102 -53t109 55q20 25 112 184q86 150 97 152q256 23 588.5 238t332.5 354q0 12 -4 22q-41 125 -196 187q-115 45 -258 45q-57 0 -91 -8q-349 -76 -372 -150q-8 -31 -10.5 -103.5t-16.5 -101.5q-80 -172 -158 -344q-162 -315 -268 -368 q-8 -6 -8 -21zM557 631q0 28 76 168q76 141 94 157q72 68 256 68q172 0 191 -41q1 -3 1 -6q0 -32 -112 -125q-76 -66 -152 -119q-53 -35 -167.5 -73.5t-163.5 -38.5q-23 0 -23 10z" />
<glyph unicode="q" horiz-adv-x="1284" d="M2 299q0 328 261 611.5t583 283.5q182 0 310 -112.5t128 -295.5q0 -198 -209 -487q94 -86 94 -152q0 -38 -50 -81q-52 -46 -91 -46q-23 0 -24 21q-8 53 -56 113q-96 -74 -262 -117q-143 -37 -272 -37q-412 0 -412 299zM254 377q0 -86 84 -133q70 -39 164 -39 q113 0 262 114q-53 37 -117 76q-2 4 -2 15q0 71 86 71h2q58 0 152 -51q200 208 200 371q0 88 -90 137q-74 41 -168 41q-223 0 -398 -187.5t-175 -414.5zM948 154z" />
<glyph unicode="r" horiz-adv-x="1288" d="M-2 131q0 14 8 21q106 53 268 368q78 172 158 344q14 29 16.5 101.5t10.5 103.5q23 74 372 150q33 8 91 8q143 0 258 -45q156 -61 196 -187q4 -10 4 -22q0 -96 -182 -246q-172 -144 -399 -246q370 -171 370 -334q0 -37 -50 -81q-52 -46 -91 -46q-23 0 -24 21 q-23 154 -386 373q-88 -27 -159 -33q-10 -2 -97 -152q-92 -160 -112 -184q-53 -55 -109 -55q-55 0 -102 53q-41 47 -41 88zM580 621q49 0 163.5 38.5t167.5 73.5q76 53 152 119q112 93 112 125q0 3 -1 6q-18 41 -191 41q-184 0 -256 -68q-18 -16 -94 -157q-76 -140 -76 -168 q0 -10 23 -10z" />
<glyph unicode="s" horiz-adv-x="1130" d="M-2 213q0 -6 2 -10q143 -203 498 -203q207 0 399 135q182 125 197 252q6 51 6 82q0 286 -331 286q-18 0 -36 -1q-174 -8 -205 -9q-156 0 -161 48v6q0 56 98 112q80 39 158 78q51 33 131 33t149.5 -28.5t73.5 -63.5q8 -90 86 -90q51 0 97 43t46 100q0 30 -14 59 q-72 150 -352 150q-121 0 -246 -29q-115 -25 -162 -55q-70 -45 -141 -90q-84 -59 -129 -129q-64 -103 -64 -224q0 -47 72 -85q68 -33 133 -33q18 0 31 4q35 10 160 10q152 0 251 -20q120 -25 120 -74q0 -4 -1 -8q-25 -139 -86 -199q-60 -58 -165 -58q-14 0 -29 1 q-348 23 -367 131q-4 18 -27 18q-43 0 -117.5 -54t-74.5 -85z" />
<glyph unicode="t" horiz-adv-x="954" d="M16 90q-1 5 -1 12q0 76 149 402q161 353 185 352h1l6 6q-2 6 -14 19q-4 2 -10 8q-63 -4 -111 -10q-117 -14 -145 -35q-4 -4 -10 -4q-25 0 -35 102q-5 51 -5 83q0 24 3 36q213 35 424 67q339 52 479 52q27 0 47 -2q43 -4 43 -123q0 -82 -17.5 -93.5t-345.5 -46.5 q-74 -61 -74 -70q0 -1 1 -1q-78 -57 -219 -393q-70 -180 -142 -361q-80 -90 -129 -90q-51 0 -80 90z" />
<glyph unicode="u" horiz-adv-x="1282" d="M4 250q0 -96 61.5 -177t133.5 -81q18 0 37 8q324 133 407 133q37 0 39 -22q4 -61 123 -62q51 0 106 10v7q0 117 181 532q188 436 272 463q10 4 10 14q0 29 -55 70t-102 41q-29 0 -43 -19q-49 -61 -230 -372q-184 -319 -184 -354t-149.5 -91.5t-252.5 -56.5q-88 0 -88 65 q0 119 158 445q145 303 174 317q6 4 6 10q0 20 -39 49t-82 29h-2q-64 0 -98 -73q-168 -350 -213 -449q-158 -336 -168 -397q-2 -18 -2 -39z" />
<glyph unicode="v" horiz-adv-x="1040" d="M6 125q0 -12 6 -14q18 -6 238 -111q51 104 102 209q119 229 223 379q145 213 244 243q156 51 209 107q25 23 86 137l-131 125q-150 -115 -301 -229q-137 -111 -221 -219q-100 -129 -193 -338q1 107 1 198q0 499 -19 514q-6 4 -19 4q-47 0 -106 -34q-60 -37 -60 -76 q0 -5 1 -10q16 -100 16 -471q0 -293 -23 -316q-53 -53 -53 -98z" />
<glyph unicode="w" horiz-adv-x="1560" d="M6 127q0 160 109 565q104 389 127 389q200 -43 200 -88q0 -6 -4 -10q-20 -35 -79.5 -224.5t-59.5 -217.5q0 -6 2 -4q141 160 281 317q194 215 215 215h2q6 -4 18 -4q45 0 172 49l6 -596q131 170 260 342q251 326 278 326h1q137 -68 137 -111q0 -14 -317 -465 q-300 -423 -300 -470q0 -2 1 -3q2 -4 2 -8q0 -45 -258 -96q-18 483 -66 682q0 3 -2 3q-20 0 -211 -259q-215 -293 -270 -414q-18 -39 -105 -39q-106 0 -133 66q-6 18 -6 55z" />
<glyph unicode="x" horiz-adv-x="1323" d="M4 102q0 12 6 23q23 33 230 221q215 195 229 211q33 39 33 98q0 37 -15 60q-41 63 -81 127q-68 109 -68 129q0 23 52 74t89 51q12 0 23 -9q59 -47 131 -182q39 -75 78 -151q2 -2 6 -2q33 0 271.5 197.5t252.5 197.5h100q76 -8 76 -55q0 -25 -18 -56q-41 -72 -318 -266 q-256 -182 -252 -213q4 -53 7 -61q4 -14 20 -43q96 -180 143 -217q8 -6 9 -19q0 -37 -61.5 -96.5t-98.5 -59.5q-8 0 -12 5q-39 27 -113 139q-78 123 -96 194q0 1 -1 1q-13 0 -220 -164q-227 -180 -265 -236q-6 -8 -18 -8q-33 0 -76 38t-43 72z" />
<glyph unicode="y" horiz-adv-x="1038" d="M2 168q0 -37 44 -98.5t79 -61.5q16 0 27 19q109 186 360 503q287 360 412 426q188 100 188 205q0 12 -4 25q-31 80 -92 80q-78 0 -242 -164q-98 -98 -147 -156q-86 -94 -129 -172q-2 -2 -4 -2q-23 0 -119 167t-101 208q-2 31 -38 31q-43 0 -80 -35q-45 -39 -45 -94 q0 -78 98 -242q88 -150 113 -158q6 -2 6 -12q-1 -14 -13 -41q-74 -119 -131 -203q-139 -205 -172 -209q-10 -2 -10 -16z" />
<glyph unicode="z" horiz-adv-x="1099" d="M6 152q27 102 383 434q339 319 390 319h1q33 -4 35 21q2 10 -2 24q-102 -25 -180 -45q-186 -51 -219 -80q-6 -4 -15 -4q-33 0 -76.5 65.5t-43.5 112.5q0 21 10 29l98 47q608 131 694 131h6q37 -4 64 -58t27 -112q0 -45 -16.5 -64.5t-340.5 -287.5q-311 -258 -329 -291 q-10 -20 -11 -37q0 -31 31 -30q8 0 18 2q313 90 355 90q14 0 20 -4q84 -84 84 -156q0 -25 -16.5 -34t-392.5 -103q-348 -86 -357 -121q-4 -12 -18 -12q-41 0 -124 66q-76 61 -76 92q0 3 1 6z" />
<glyph unicode="{" horiz-adv-x="1095" d="M-4 150q0 10 4 22q63 209 256 664q248 588 342 614q301 84 475 84q68 0 76 -21q27 -59 27 -127q0 -76 -43 -102q-33 -20 -215 -39q-168 -16 -172.5 -31.5t-51.5 -123.5q-43 -98 -39 -99q-7 -8 -286 -663q307 117 374 104q47 -8 76 -66.5t29 -119.5q0 -53 -23 -68 q-43 -29 -299 -106q-266 -84 -305 -72q-225 63 -225 150z" />
<glyph unicode="|" horiz-adv-x="1017" d="M-2 -168q0 -66 65 -98q51 -27 119 -27q27 0 43 4q67 85 307 617q512 1145 551 1130q6 -2 7 4q0 29 -56 97q-61 74 -112 73q-25 0 -43 -18q-55 -55 -457 -871q-201 -414 -402 -827q-23 -47 -22 -84z" />
<glyph unicode="}" horiz-adv-x="1124" d="M-6 117q0 125 49 155q33 20 227 39q182 18 186.5 32.5t121.5 295.5q113 270 108 270q7 9 148 320q-328 -117 -465 -111q-33 2 -33 39q0 49 53 139q47 84 80 105q43 29 252 96q221 72 260 59q225 -63 225 -147q0 -12 -4 -25q-70 -225 -256 -677q-246 -602 -340 -629 q-100 -29 -309 -53q-186 -25 -258 -25q-45 0 -45 117z" />
<glyph unicode="~" horiz-adv-x="864" d="M53 1133q-8 -66 31 -135.5t111 -110.5q92 121 155 121q33 0 101.5 -64.5t132.5 -64.5q61 0 141 49q88 55 154 196q43 94 47 136q-39 33 -79 64.5t-85 31.5q-25 0 -53 -8q-80 -178 -138 -179q-29 0 -54 45.5t-101 95.5t-109 44q-72 -12 -144.5 -79t-109.5 -142zM53 1133z M195 887z" />
<glyph unicode="&#xad;" d="M12 848q0 16 9.5 23t326.5 40q346 35 492 35q86 0 90 -12t45 -65.5t41 -80.5q0 -29 -37 -43q-68 -29 -422 -51q-334 -23 -418 -14q-4 -16 -65.5 55.5t-61.5 112.5z" />
<glyph unicode="&#x2000;" horiz-adv-x="816" />
<glyph unicode="&#x2001;" horiz-adv-x="1632" />
<glyph unicode="&#x2002;" horiz-adv-x="816" />
<glyph unicode="&#x2003;" horiz-adv-x="1632" />
<glyph unicode="&#x2004;" horiz-adv-x="544" />
<glyph unicode="&#x2005;" horiz-adv-x="408" />
<glyph unicode="&#x2006;" horiz-adv-x="272" />
<glyph unicode="&#x2007;" horiz-adv-x="272" />
<glyph unicode="&#x2008;" horiz-adv-x="204" />
<glyph unicode="&#x2009;" horiz-adv-x="326" />
<glyph unicode="&#x200a;" horiz-adv-x="90" />
<glyph unicode="&#x2010;" d="M12 848q0 16 9.5 23t326.5 40q346 35 492 35q86 0 90 -12t45 -65.5t41 -80.5q0 -29 -37 -43q-68 -29 -422 -51q-334 -23 -418 -14q-4 -16 -65.5 55.5t-61.5 112.5z" />
<glyph unicode="&#x2011;" d="M12 848q0 16 9.5 23t326.5 40q346 35 492 35q86 0 90 -12t45 -65.5t41 -80.5q0 -29 -37 -43q-68 -29 -422 -51q-334 -23 -418 -14q-4 -16 -65.5 55.5t-61.5 112.5z" />
<glyph unicode="&#x2012;" d="M12 848q0 16 9.5 23t326.5 40q346 35 492 35q86 0 90 -12t45 -65.5t41 -80.5q0 -29 -37 -43q-68 -29 -422 -51q-334 -23 -418 -14q-4 -16 -65.5 55.5t-61.5 112.5z" />
<glyph unicode="&#x2013;" horiz-adv-x="1072" d="M12 848q0 16 9.5 23t333.5 40q353 35 501 35q88 0 92 -12t46 -65.5t42 -80.5q0 -29 -38 -43q-69 -29 -430 -51q-341 -23 -426 -14q-5 -16 -67.5 55.5t-62.5 112.5z" />
<glyph unicode="&#x2014;" horiz-adv-x="2096" d="M12 848q0 16 19.5 23t665.5 40q706 35 1004 35q175 0 183.5 -12t92 -65.5t83.5 -80.5q0 -29 -75 -43q-139 -29 -861 -51q-682 -23 -853 -14q-8 -16 -133.5 55.5t-125.5 112.5z" />
<glyph unicode="&#x202f;" horiz-adv-x="326" />
<glyph unicode="&#x205f;" horiz-adv-x="408" />
<glyph unicode="&#x25fc;" horiz-adv-x="1146" d="M0 0v1147h1147v-1147h-1147z" />
</font>
</defs>
</svg>
