<?xml version="1.0" standalone="no"?>
<!DOCTYPE svg PUBLIC "-//W3C//DTD SVG 1.1//EN" "http://www.w3.org/Graphics/SVG/1.1/DTD/svg11.dtd" >
<svg xmlns="http://www.w3.org/2000/svg">
<metadata></metadata>
<defs>
<font id="rajdhanilight" horiz-adv-x="1019" >
<font-face units-per-em="2048" ascent="1536" descent="-512" />
<missing-glyph horiz-adv-x="573" />
<glyph horiz-adv-x="0" />
<glyph horiz-adv-x="682" />
<glyph horiz-adv-x="0" />
<glyph horiz-adv-x="0" />
<glyph unicode="&#xd;" horiz-adv-x="681" />
<glyph unicode=" "  horiz-adv-x="573" />
<glyph unicode="&#x09;" horiz-adv-x="573" />
<glyph unicode="&#xa0;" horiz-adv-x="573" />
<glyph unicode="!" horiz-adv-x="485" d="M205 1126v172q0 18 16 19h43q16 0 17 -19v-172q0 -182 -7.5 -415.5t-12.5 -264t-15 -30.5h-8q-10 0 -15 22q-18 135 -18 688zM209 18v244q0 18 16 19h35q16 -1 16 -19v-244q0 -18 -16 -18h-35q-16 0 -16 18z" />
<glyph unicode="&#x22;" horiz-adv-x="663" d="M143 1296q0 20 19 21h35q18 0 18 -21l-14 -372q-1 -21 -19 -21h-6q-18 0 -18 21zM449 1296q0 20 18 21h35q18 0 18 -21l-14 -372q-1 -21 -19 -21h-6q-18 0 -18 21z" />
<glyph unicode="#" horiz-adv-x="1390" d="M123 371v24q0 16 18 17h209l142 493h-205q-18 0 -19 17v24q0 16 19 17h221l96 331q6 23 27 23h16q25 0 15 -31l-95 -323h430l97 331q6 23 26 23h17q23 0 14 -31l-94 -323h192q18 0 19 -17v-24q0 -16 -19 -17h-209l-141 -493h205q18 0 18 -17v-24q0 -16 -18 -17h-221 l-97 -331q-6 -23 -24 -23h-23q-18 0 -10 31l94 323h-430l-96 -331q-6 -23 -25 -23h-22q-20 0 -10 31l94 323h-193q-18 0 -18 17zM410 412h430l141 493h-430z" />
<glyph unicode="$" d="M154 279v69q0 18 16 19h29q16 0 16 -19v-67q0 -104 55.5 -164t157.5 -60h164q102 0 157.5 59.5t55.5 164.5v145q0 117 -53.5 165t-163.5 48h-148q-137 0 -211.5 58.5t-74.5 203.5v141q0 127 74.5 203t199.5 76h80v182q0 18 16 19h29q16 0 16 -19v-182h23q125 0 199.5 -76 t74.5 -203v-61q0 -18 -16 -18h-29q-16 0 -16 18v59q0 104 -55.5 164t-157.5 60h-164q-102 0 -157.5 -59.5t-55.5 -164.5v-139q0 -115 51 -161t162 -46h166q272 0 272 -264v-151q0 -127 -74.5 -203t-199.5 -76h-23v-182q0 -19 -16 -19h-29q-16 0 -16 19v182h-80 q-125 0 -199.5 76t-74.5 203z" />
<glyph unicode="%" horiz-adv-x="1456" d="M102 977v102q0 127 57.5 187.5t182.5 60.5h33q123 0 180 -59.5t57 -188.5v-102q0 -129 -57 -189.5t-180 -60.5h-33q-123 0 -181.5 60.5t-58.5 189.5zM164 979q0 -106 39 -150.5t139 -44.5h33q100 0 138 44t38 151v98q0 106 -38 149.5t-138 43.5h-33q-100 0 -139 -43 t-39 -150v-98zM418 25l563 1269q10 23 27 23h20q20 0 8 -29l-561 -1265q-10 -23 -26 -23h-21q-20 0 -10 25zM844 250v102q0 127 57 187.5t182 60.5h33q123 0 180.5 -59.5t57.5 -188.5v-102q0 -129 -57.5 -189.5t-180.5 -60.5h-33q-123 0 -181 60.5t-58 189.5zM905 252 q0 -106 39 -150.5t139 -44.5h33q100 0 138 44t38 151v98q0 106 -38 149.5t-138 43.5h-33q-100 0 -139 -43t-39 -150v-98z" />
<glyph unicode="&#x26;" horiz-adv-x="1212" d="M164 272v189q0 102 53 177t166 77q-98 117 -98 241v88q0 127 74.5 200t199.5 73h45q125 0 200 -73t75 -200v-100q0 -18 -17 -18h-28q-16 0 -17 18v98q0 104 -55 161t-158 57h-45q-102 0 -157.5 -56.5t-55.5 -161.5v-84q0 -68 18.5 -113.5t69.5 -101.5l137 -157h500 q18 0 19 -17v-24q0 -16 -19 -17h-450l446 -516q4 -8 -4 -12h-39q-14 0 -27 12l-129 148q-27 -76 -94.5 -118t-161.5 -42h-174q-125 0 -199.5 72.5t-74.5 199.5zM225 274q0 -104 55.5 -160.5t157.5 -56.5h174q178 0 207 158l-401 461q-94 -6 -143.5 -62.5t-49.5 -154.5v-185z " />
<glyph unicode="'" horiz-adv-x="378" d="M154 1296q0 20 18 21h35q18 0 18 -21l-14 -372q-6 -21 -18 -21h-7q-18 0 -18 21z" />
<glyph unicode="(" horiz-adv-x="567" d="M123 70v968q0 127 74.5 203t199.5 76h9q18 -1 18 -17v-24q0 -16 -18 -16h-9q-102 0 -157.5 -59.5t-55.5 -164.5v-964q0 -104 55.5 -164t157.5 -60h9q18 0 18 -16v-25q0 -16 -18 -16h-9q-125 0 -199.5 76t-74.5 203z" />
<glyph unicode=")" horiz-adv-x="567" d="M123 -168q0 16 18 16h9q102 0 157 59.5t55 164.5v964q0 104 -55 164t-157 60h-9q-18 0 -18 16v24q0 16 18 17h9q125 0 199.5 -76t74.5 -203v-968q0 -127 -75 -203t-199 -76h-9q-18 0 -18 16v25z" />
<glyph unicode="*" horiz-adv-x="835" d="M156 1116l10 29q4 16 22 10q176 -55 230 -108q-31 86 -31 217v34q0 18 16 19h31q16 0 17 -19v-34q0 -152 -33 -217q86 66 233 106q16 6 21 -10l8 -29q8 -16 -12 -22l-35 -11q-152 -47 -215 -34q84 -61 151 -158l23 -31q10 -10 -4 -22l-25 -17q-14 -10 -24 4 q-113 158 -121 224q-37 -102 -125 -224q-8 -12 -23 -4l-24 19q-14 6 -2 24q57 80 103 126t71 59q-111 0 -250 49q-18 6 -12 20z" />
<glyph unicode="+" horiz-adv-x="1048" d="M143 645v25q0 16 19 16h332v334q0 18 16 18h29q16 0 16 -18v-334h332q18 0 18 -16v-25q0 -16 -18 -16h-332v-334q0 -18 -16 -19h-29q-16 0 -16 19v334h-332q-18 0 -19 16z" />
<glyph unicode="," horiz-adv-x="382" d="M154 -195v457q0 18 16 19h43q16 -1 16 -19v-162q0 -31 -53 -295q-4 -12 -13 -12t-9 12z" />
<glyph unicode="-" horiz-adv-x="638" d="M82 643v25q0 16 18 16h439q18 0 18 -16v-25q0 -16 -18 -16h-439q-18 0 -18 16z" />
<glyph unicode="." horiz-adv-x="382" d="M154 18v244q0 18 16 19h43q16 -1 16 -19v-244q0 -18 -16 -18h-43q-16 0 -16 18z" />
<glyph unicode="/" horiz-adv-x="804" d="M145 25l447 1269q8 23 26 23h29q23 0 12 -29l-444 -1265q-9 -23 -27 -23h-26q-27 0 -17 25z" />
<glyph unicode="0" horiz-adv-x="1040" d="M143 279v759q0 127 75 203t200 76h205q125 0 199.5 -76t74.5 -203v-759q0 -127 -74.5 -203t-199.5 -76h-205q-125 0 -200 76t-75 203zM205 281q0 -104 55.5 -164t157.5 -60h205q102 0 157.5 59.5t55.5 164.5v755q0 104 -55.5 164t-157.5 60h-205q-102 0 -157.5 -59.5 t-55.5 -164.5v-755z" />
<glyph unicode="1" horiz-adv-x="638" d="M82 1102v12q0 27 22 39l277 154q20 10 33 10h24q16 0 17 -19v-1280q0 -18 -17 -18h-28q-16 0 -17 18v1231l-278 -157q-33 -23 -33 10z" />
<glyph unicode="2" horiz-adv-x="970" d="M123 944v100q0 127 74.5 200t199.5 73h168q125 0 200 -73t75 -200v-88q0 -160 -131 -256l-414 -309q-102 -78 -102 -190v-144h636q18 0 19 -16v-25q0 -16 -19 -16h-679q-19 0 -19 16v177q0 154 129 245l410 305q109 80 108 215v84q0 104 -55 161t-158 57h-168 q-102 0 -157.5 -56.5t-55.5 -161.5v-98q0 -18 -16 -18h-29q-16 0 -16 18z" />
<glyph unicode="3" horiz-adv-x="1009" d="M143 272v103q0 18 17 18h28q16 0 17 -18v-101q0 -104 55 -160.5t158 -56.5h174q102 0 157.5 56.5t55.5 160.5v144q0 104 -55.5 160.5t-157.5 56.5h-127q-18 0 -19 16v25q1 16 19 16h127q102 0 157.5 56.5t55.5 160.5v133q0 104 -55.5 161t-157.5 57h-174 q-102 0 -157.5 -56.5t-55.5 -161.5v-77q0 -18 -17 -19h-28q-16 0 -17 19v79q0 127 75 200t200 73h174q125 0 199.5 -73t74.5 -200v-137q0 -193 -172 -243q172 -45 172 -244v-148q0 -127 -74.5 -199.5t-199.5 -72.5h-174q-125 0 -200 72.5t-75 199.5z" />
<glyph unicode="4" horiz-adv-x="1054" d="M102 293v24q0 14 13 33l569 944q12 23 39 23h59q16 0 17 -19v-964h155q18 0 19 -17v-24q0 -16 -19 -17h-155v-258q-1 -18 -17 -18h-28q-16 0 -17 18v258h-616q-18 0 -19 17zM172 334h565v938z" />
<glyph unicode="5" horiz-adv-x="974" d="M143 279v81q0 18 17 19h28q16 0 17 -19v-79q0 -104 55 -164t158 -60h160q102 0 157.5 59.5t55.5 164.5v262q0 104 -55.5 160.5t-157.5 56.5h-197q-55 0 -90 -17.5t-47.5 -37t-23.5 -37t-23 -17.5h-37q-16 0 -17 19v628q0 18 17 19h653q18 0 18 -17v-24q0 -16 -18 -16 h-608v-543q39 100 176 100h197q125 0 199.5 -72.5t74.5 -199.5v-266q0 -127 -75 -203t-199 -76h-160q-125 0 -200 76t-75 203z" />
<glyph unicode="6" horiz-adv-x="1003" d="M123 279v759q0 127 74.5 203t199.5 76h381q18 0 19 -17v-24q0 -16 -19 -16h-381q-102 0 -157.5 -59.5t-55.5 -164.5v-264h402q125 0 199.5 -75.5t74.5 -202.5v-215q0 -127 -74.5 -203t-199.5 -76h-189q-125 0 -199.5 76t-74.5 203zM184 281q0 -104 55.5 -164t157.5 -60 h189q102 0 157.5 59.5t55.5 164.5v211q0 104 -55.5 163.5t-157.5 59.5h-402v-434z" />
<glyph unicode="7" horiz-adv-x="751" d="M31 1276v24q0 16 18 17h643q18 0 19 -17v-20q0 -14 -6 -29l-453 -1233q-6 -18 -29 -18h-20q-25 0 -13 29l453 1231h-594q-18 0 -18 16z" />
<glyph unicode="8" horiz-adv-x="1050" d="M143 272v148q0 184 152 244q-152 59 -152 243v137q0 127 75 200t200 73h215q125 0 199.5 -73t74.5 -200v-137q0 -184 -151 -243q152 -59 151 -244v-148q0 -127 -74.5 -199.5t-199.5 -72.5h-215q-125 0 -200 72.5t-75 199.5zM205 274q0 -104 55.5 -160.5t157.5 -56.5h215 q102 0 157.5 56.5t55.5 160.5v144q0 104 -55.5 160.5t-157.5 56.5h-215q-102 0 -157.5 -56.5t-55.5 -160.5v-144zM205 909q0 -104 55.5 -160.5t157.5 -56.5h215q102 0 157.5 56.5t55.5 160.5v133q0 104 -55.5 161t-157.5 57h-215q-102 0 -157.5 -56.5t-55.5 -161.5v-133z " />
<glyph unicode="9" horiz-adv-x="1003" d="M123 823v215q0 127 74.5 203t199.5 76h189q125 0 199.5 -76t74.5 -203v-759q0 -127 -74.5 -203t-199.5 -76h-381q-18 0 -19 16v25q0 16 19 16h381q102 0 157.5 59.5t55.5 164.5v264h-402q-125 0 -199.5 75.5t-74.5 202.5zM184 825q0 -104 55.5 -163.5t157.5 -59.5h402 v434q0 104 -55.5 164t-157.5 60h-189q-102 0 -157.5 -59.5t-55.5 -164.5v-211z" />
<glyph unicode=":" horiz-adv-x="382" d="M154 18v244q0 18 16 19h43q16 -1 16 -19v-244q0 -18 -16 -18h-43q-16 0 -16 18zM154 782v244q0 18 16 18h43q16 0 16 -18v-244q0 -18 -16 -18h-43q-16 0 -16 18z" />
<glyph unicode=";" horiz-adv-x="382" d="M154 -195v457q0 18 16 19h43q16 -1 16 -19v-162q0 -31 -53 -295q-4 -12 -13 -12t-9 12zM154 782v244q0 18 16 18h43q16 0 16 -18v-244q0 -18 -16 -18h-43q-16 0 -16 18z" />
<glyph unicode="&#x3c;" horiz-adv-x="1024" d="M131 637v41q0 14 19 22l720 285q23 8 23 -12v-29q0 -16 -14 -20l-691 -267l691 -266q14 -4 14 -20v-29q0 -20 -23 -12l-720 284q-18 8 -19 23z" />
<glyph unicode="=" horiz-adv-x="1069" d="M154 467v25q0 16 18 16h725q18 0 18 -16v-25q0 -16 -18 -16h-725q-18 0 -18 16zM154 823v25q0 16 18 16h725q18 0 18 -16v-25q0 -16 -18 -16h-725q-18 0 -18 16z" />
<glyph unicode="&#x3e;" horiz-adv-x="1069" d="M154 342v29q0 16 14 20l690 266l-690 267q-14 4 -14 20v29q0 20 22 12l721 -285q18 -8 18 -22v-41q0 -14 -18 -23l-721 -284q-23 -8 -22 12z" />
<glyph unicode="?" horiz-adv-x="972" d="M164 944v98q0 127 74.5 200t199.5 73h97q125 0 199.5 -73t74.5 -200v-71q0 -113 -98 -195l-82 -69q-61 -51 -75.5 -87t-14.5 -106v-80q0 -18 -17 -18h-28q-16 0 -17 18v72q0 88 23.5 135t99.5 113l64 57q84 72 84 162v67q0 104 -55.5 160.5t-157.5 56.5h-97 q-102 0 -157.5 -56t-55.5 -161v-96q0 -18 -16 -18h-29q-16 0 -16 18zM469 18v244q0 18 16 19h43q17 -1 17 -19v-244q0 -18 -17 -18h-43q-16 0 -16 18z" />
<glyph unicode="@" horiz-adv-x="1546" d="M184 403v310q0 244 155 383t355 139h393q125 0 200 -76t75 -203v-507q0 -127 -75 -203t-200 -76h-47q-25 0 -41 17.5t-16 41.5v52h-8q-57 -106 -221 -107q-125 0 -200 76t-75 203v211q0 127 75 202.5t200 75.5h274q16 0 16 -18v-680q0 -16 19 -17h24q102 0 157.5 59.5 t55.5 164.5v503q0 104 -55 164t-158 60h-397q-178 0 -311 -129t-133 -334v-314q0 -205 133 -333.5t311 -128.5h377q18 0 18 -17v-24q0 -17 -18 -17h-373q-201 0 -355.5 139.5t-154.5 382.5zM541 455q0 -104 55 -164t158 -60h2q102 0 164.5 55.5t62.5 157.5v424q0 16 -18 17 h-211q-102 0 -157.5 -59.5t-55.5 -163.5v-207z" />
<glyph unicode="A" horiz-adv-x="1077" d="M63 18l431 1280q6 18 20 19h49q14 0 21 -19l430 -1280q1 -4 1 -8q0 -10 -14 -10h-30q-14 0 -21 18l-125 357h-573l-125 -357q-9 -18 -23 -18h-28q-14 0 -14 11q0 3 1 7zM274 436h529l-260 803h-8z" />
<glyph unicode="B" horiz-adv-x="1114" d="M184 18v1280q0 18 17 19h473q125 0 199.5 -73t74.5 -200v-135q0 -190 -180 -243q74 -4 133.5 -72t59.5 -172v-150q0 -127 -75 -199.5t-200 -72.5h-485q-17 0 -17 18zM246 74q0 -17 18 -17h422q102 0 157.5 56.5t55.5 160.5v146q0 217 -233 217h-402q-18 0 -18 -16v-547z M246 711q0 -17 18 -17h402q104 0 162.5 56.5t58.5 160.5v131q0 104 -55.5 161t-157.5 57h-410q-18 0 -18 -17v-532z" />
<glyph unicode="C" horiz-adv-x="1112" d="M164 279v759q0 127 74.5 203t199.5 76h267q125 0 199.5 -76t74.5 -203v-102q0 -18 -16 -18h-29q-16 0 -16 18v100q0 104 -55.5 164t-157.5 60h-267q-102 0 -157.5 -59.5t-55.5 -164.5v-755q0 -104 55.5 -164t157.5 -60h267q102 0 157.5 59.5t55.5 164.5v100q0 18 16 18 h29q16 0 16 -18v-102q0 -127 -74.5 -203t-199.5 -76h-267q-125 0 -199.5 76t-74.5 203z" />
<glyph unicode="D" horiz-adv-x="1142" d="M184 18v1280q0 18 17 19h504q125 0 199.5 -76t74.5 -203v-759q0 -127 -75 -203t-199 -76h-504q-17 0 -17 18zM246 74q0 -17 18 -17h441q102 0 157.5 59.5t55.5 164.5v755q0 104 -55.5 164t-157.5 60h-441q-18 0 -18 -17v-1169z" />
<glyph unicode="E" horiz-adv-x="985" d="M184 18v1280q0 18 17 19h622q18 0 19 -17v-24q0 -16 -19 -16h-559q-18 0 -18 -17v-526q0 -16 18 -17h506q18 0 18 -16v-25q0 -16 -18 -16h-506q-18 0 -18 -16v-553q0 -16 18 -17h559q18 0 19 -16v-25q-1 -16 -19 -16h-622q-16 0 -17 18z" />
<glyph unicode="F" horiz-adv-x="946" d="M184 18v1280q0 18 17 19h624q18 0 19 -17v-24q0 -16 -19 -16h-561q-18 0 -18 -17v-545q0 -16 18 -16h506q18 0 18 -16v-25q0 -16 -18 -16h-506q-18 0 -18 -17v-590q-1 -18 -17 -18h-28q-16 0 -17 18z" />
<glyph unicode="G" horiz-adv-x="1101" d="M164 279v759q0 127 74.5 203t199.5 76h226q125 0 199.5 -76t74.5 -203v-102q0 -18 -16 -18h-29q-16 0 -16 18v100q0 104 -55.5 164t-157.5 60h-226q-102 0 -157.5 -59.5t-55.5 -164.5v-755q0 -104 55.5 -164t157.5 -60h226q102 0 157.5 59.5t55.5 164.5v309q0 16 -19 16 h-264q-18 0 -19 17v24q0 16 19 17h307q37 0 37 -39v-346q0 -127 -74.5 -203t-199.5 -76h-226q-125 0 -199.5 76t-74.5 203z" />
<glyph unicode="H" horiz-adv-x="1163" d="M184 18v1280q0 18 17 19h28q16 0 17 -19v-581q0 -16 18 -17h635q18 0 19 17v581q0 18 16 19h29q16 0 16 -19v-1280q0 -18 -16 -18h-29q-16 0 -16 18v609q0 16 -19 16h-635q-18 0 -18 -16v-609q-1 -18 -17 -18h-28q-16 0 -17 18z" />
<glyph unicode="I" horiz-adv-x="450" d="M195 18v1280q0 18 16 19h29q16 -1 16 -19v-1280q0 -18 -16 -18h-29q-16 0 -16 18z" />
<glyph unicode="J" horiz-adv-x="1009" d="M82 279v163q0 18 16 19h29q16 0 16 -19v-161q0 -104 55.5 -164t157.5 -60h205q102 0 157.5 59.5t55.5 164.5v1017q1 19 17 19h28q16 0 17 -17v-1021q0 -127 -75 -203t-200 -76h-205q-125 0 -199.5 76t-74.5 203z" />
<glyph unicode="K" horiz-adv-x="1071" d="M184 18v1280q0 18 17 19h28q16 0 17 -19v-802h8q12 27 31 51l575 751q14 18 33 19h39q20 0 4 -19l-418 -555l488 -725q4 -7 4 -11q0 -7 -13 -7h-32q-18 0 -31 18l-455 676l-233 -280v-396q-1 -18 -17 -18h-28q-16 0 -17 18z" />
<glyph unicode="L" horiz-adv-x="925" d="M184 18v1280q0 18 17 19h28q16 0 17 -19v-1220q0 -16 18 -17h582q18 0 18 -16v-29q0 -16 -18 -16h-645q-16 0 -17 18z" />
<glyph unicode="M" horiz-adv-x="1409" d="M184 18v1280q0 18 17 19h57q10 0 14 -8l428 -947h9l428 947q4 8 14 8h57q16 0 17 -19v-1280q0 -18 -17 -18h-28q-16 0 -17 18v1180h-8l-405 -895q-8 -16 -25 -16h-39q-16 0 -24 16l-408 897h-8v-1182q0 -18 -17 -18h-28q-16 0 -17 18z" />
<glyph unicode="N" horiz-adv-x="1183" d="M184 18v1280q0 18 17 19h28q10 0 15 -8l686 -1162h8v1151q0 18 16 19h29q16 0 16 -19v-1280q0 -18 -16 -18h-20q-14 0 -25 16l-684 1158h-8v-1156q-1 -18 -17 -18h-28q-16 0 -17 18z" />
<glyph unicode="O" horiz-adv-x="1132" d="M164 279v759q0 127 74.5 203t199.5 76h256q125 0 200 -76t75 -203v-759q0 -127 -75 -203t-200 -76h-256q-125 0 -199.5 76t-74.5 203zM225 281q0 -104 55.5 -164t157.5 -60h256q102 0 157.5 59.5t55.5 164.5v755q0 104 -55 164t-158 60h-256q-102 0 -157.5 -59.5 t-55.5 -164.5v-755z" />
<glyph unicode="P" horiz-adv-x="1071" d="M184 18v1280q0 18 17 19h463q125 0 199.5 -76t74.5 -203v-252q0 -127 -75 -202.5t-199 -75.5h-400q-18 0 -18 -16v-474q-1 -18 -17 -18h-28q-16 0 -17 18zM246 582q0 -17 18 -17h400q102 0 157.5 59.5t55.5 163.5v248q0 104 -55.5 164t-157.5 60h-400q-18 0 -18 -17v-661 z" />
<glyph unicode="Q" horiz-adv-x="1132" d="M164 279v759q0 127 74.5 203t199.5 76h256q125 0 200 -76t75 -203v-759q0 -127 -75 -203t-200 -76l158 -254q12 -18 -8 -18h-33q-18 0 -31 18l-157 254h-185q-125 0 -199.5 76t-74.5 203zM225 281q0 -104 55.5 -164t157.5 -60h256q102 0 157.5 59.5t55.5 164.5v755 q0 104 -55 164t-158 60h-256q-102 0 -157.5 -59.5t-55.5 -164.5v-755z" />
<glyph unicode="R" horiz-adv-x="1085" d="M184 18v1280q0 18 17 19h461q125 0 199.5 -76t74.5 -203v-204q0 -115 -61.5 -188t-165.5 -87v-8l252 -533q3 -6 3 -10q0 -8 -12 -8h-37q-16 0 -26 18l-250 537h-375q-18 0 -18 -16v-521q-1 -18 -17 -18h-28q-16 0 -17 18zM246 629q0 -17 18 -17h398q102 0 157 59.5 t55 164.5v200q0 104 -55 164t-157 60h-398q-18 0 -18 -17v-614z" />
<glyph unicode="S" horiz-adv-x="1163" d="M184 279v81q0 18 17 19h28q16 0 17 -19v-79q0 -104 55 -164t158 -60h246q102 0 157.5 59.5t55.5 164.5v102q0 96 -76 152.5t-183.5 82l-215 51t-183.5 85t-76 161.5v123q0 127 75 203t200 76h246q125 0 199.5 -76t74.5 -203v-61q0 -18 -16 -19h-29q-16 0 -16 19v59 q0 104 -55.5 164t-157.5 60h-246q-102 0 -157.5 -59.5t-55.5 -164.5v-118q0 -152 258 -209q109 -23 216 -50.5t183 -94t76 -177.5v-108q0 -127 -75 -203t-199 -76h-246q-125 0 -200 76t-75 203z" />
<glyph unicode="T" horiz-adv-x="847" d="M41 1276v24q0 16 18 17h729q18 0 19 -17v-24q0 -16 -19 -16h-315q-18 0 -18 -17v-1225q-1 -18 -17 -18h-28q-16 0 -17 18v1225q0 16 -18 17h-316q-18 0 -18 16z" />
<glyph unicode="U" horiz-adv-x="1126" d="M174 279v1019q0 18 16 19h29q16 0 17 -19v-1017q0 -104 55 -164t158 -60h229q102 0 157.5 59.5t55.5 164.5v1017q0 19 16 19h29q16 0 16 -17v-1021q0 -127 -74.5 -203t-199.5 -76h-229q-125 0 -200 76t-75 203z" />
<glyph unicode="V" horiz-adv-x="1011" d="M63 1298q-1 4 -1 8q0 11 14 11h30q14 0 21 -19l375 -1208h8l375 1208q6 18 20 19h31q14 0 14 -11q0 -4 -2 -8l-397 -1280q-7 -18 -21 -18h-49q-14 0 -20 18z" />
<glyph unicode="W" horiz-adv-x="1617" d="M74 1298q-1 3 -1 6q0 13 17 13h29q14 0 20 -19l277 -1220h8l342 1220q6 18 22 19h39q16 0 23 -19l344 -1220h8l277 1220q4 18 22 19h31q14 0 14 -11q0 -4 -2 -8l-297 -1280q-4 -18 -20 -18h-56q-16 0 -22 18l-336 1209h-8l-336 -1209q-6 -18 -20 -18h-56q-16 0 -22 18z " />
<glyph unicode="X" horiz-adv-x="1011" d="M78 18l389 682l-367 598q-10 18 11 19h28q18 0 29 -19l336 -550h8l334 550q10 18 26 19h33q18 0 8 -19l-364 -596l387 -684q4 -6 4 -11q0 -7 -12 -7h-33q-14 0 -23 14l-362 635h-8l-361 -635q-8 -14 -22 -14h-33q-12 0 -12 7q0 5 4 11z" />
<glyph unicode="Y" horiz-adv-x="995" d="M63 1298q-3 6 -3 10q0 8 14 9h37q14 0 22 -19l361 -716h8l360 716q8 18 23 19h37q13 0 13 -8q0 -5 -3 -11l-404 -796v-484q0 -18 -16 -18h-29q-16 0 -16 18v484z" />
<glyph unicode="Z" horiz-adv-x="964" d="M82 16v35q0 12 4 19l705 1181v9h-670q-18 0 -19 16v24q0 16 19 17h723q18 0 18 -17v-38q0 -10 -4 -17l-704 -1179v-9h710q18 0 19 -16v-25q0 -16 -19 -16h-764q-18 0 -18 16z" />
<glyph unicode="[" horiz-adv-x="567" d="M123 -190v1488q0 18 16 19h267q18 0 18 -17v-24q0 -16 -18 -16h-203q-18 0 -19 -17v-1378q0 -16 19 -17h203q18 0 18 -16v-25q0 -16 -18 -16h-267q-16 0 -16 19z" />
<glyph unicode="\" horiz-adv-x="804" d="M145 1288q-10 29 13 29h28q18 0 27 -23l446 -1269q8 -25 -16 -25h-27q-18 0 -26 23z" />
<glyph unicode="]" horiz-adv-x="567" d="M123 -168q0 16 18 16h203q18 0 18 17v1378q0 16 -18 17h-203q-18 0 -18 16v24q0 16 18 17h267q16 0 16 -19v-1488q0 -18 -16 -19h-267q-18 0 -18 16v25z" />
<glyph unicode="^" horiz-adv-x="927" d="M127 772l274 522q12 23 39 23h47q27 0 39 -23l275 -522q14 -25 -15 -24h-20q-16 0 -29 18l-274 516l-273 -516q-12 -18 -28 -18h-21q-29 0 -14 24z" />
<glyph unicode="_" horiz-adv-x="761" d="M0 -156q0 16 18 17h725q18 0 19 -17v-24q-1 -17 -19 -17h-725q-18 0 -18 17v24z" />
<glyph unicode="`" horiz-adv-x="534" d="M144 1434.5q3 5.5 12 5.5h61q20 0 31 -19l139 -227q10 -18 -6 -18h-16q-16 0 -29 16l-189 229q-6 8 -3 13.5z" />
<glyph unicode="a" d="M143 279v487q0 127 75 202.5t200 75.5h422q16 0 16 -18v-1008q0 -18 -16 -18h-29q-16 0 -16 18v88h-9q-57 -106 -217 -106h-151q-125 0 -200 76t-75 203zM205 281q0 -104 55 -164t158 -60h147q102 0 166 55.5t64 157.5v701q0 16 -19 16h-358q-102 0 -157.5 -59.5 t-55.5 -163.5v-483z" />
<glyph unicode="b" d="M164 18v1403q0 18 16 19h29q16 0 16 -19v-463h8q57 106 218 107h151q125 0 200 -76t75 -203v-507q0 -127 -75 -203t-200 -76h-422q-16 0 -16 18zM225 74q1 -17 19 -17h358q102 0 157.5 59.5t55.5 164.5v503q0 104 -55 164t-158 60h-147q-102 0 -166 -55.5t-64 -157.5 v-721z" />
<glyph unicode="c" horiz-adv-x="798" d="M143 279v487q0 127 75 202.5t200 75.5h291q18 0 18 -16v-24q0 -16 -18 -17h-291q-102 0 -157.5 -59.5t-55.5 -163.5v-483q0 -104 55 -164t158 -60h291q18 0 18 -16v-25q0 -16 -18 -16h-291q-125 0 -200 76t-75 203z" />
<glyph unicode="d" d="M143 279v487q0 127 75 202.5t200 75.5h151q160 0 217 -106h9v483q0 18 16 19h29q16 0 16 -19v-1403q0 -18 -16 -18h-29q-16 0 -16 18v88h-9q-57 -106 -217 -106h-151q-125 0 -200 76t-75 203zM205 281q0 -104 55 -164t158 -60h147q102 0 166 55.5t64 157.5v504 q0 102 -63.5 157.5t-166.5 55.5h-147q-102 0 -157.5 -59.5t-55.5 -163.5v-483z" />
<glyph unicode="e" horiz-adv-x="1005" d="M143 279v487q0 127 75 202.5t200 75.5h180q125 0 199.5 -75.5t74.5 -202.5v-260q0 -20 -18 -21h-631q-18 0 -18 -16v-188q0 -104 55 -164t158 -60h420q18 0 18 -16v-25q0 -16 -18 -16h-420q-125 0 -200 76t-75 203zM205 559q0 -16 18 -16h570q18 0 18 16v205 q0 104 -55.5 163.5t-157.5 59.5h-180q-102 0 -157.5 -59.5t-55.5 -163.5v-205z" />
<glyph unicode="f" horiz-adv-x="593" d="M80 1004v24q0 16 18 16h140q18 0 18 17v104q0 274 242 275h30q18 0 19 -17v-24q0 -16 -19 -17h-30q-98 0 -139.5 -54t-41.5 -165v-102q1 -17 19 -17h192q18 0 19 -16v-24q0 -16 -19 -17h-192q-18 0 -19 -16v-953q0 -18 -16 -18h-29q-16 0 -16 18v953q0 16 -18 16h-140 q-18 0 -18 17z" />
<glyph unicode="g" horiz-adv-x="1030" d="M154 340v426q0 127 74.5 202.5t199.5 75.5h422q16 0 16 -18v-1020q0 -127 -74.5 -202.5t-199.5 -75.5h-367q-18 0 -18 16v25q0 16 18 16h367q102 0 157.5 59.5t55.5 163.5v160h-8q-57 -107 -217 -107h-152q-125 0 -199.5 76t-74.5 203zM215 342q0 -104 55.5 -163.5 t157.5 -59.5h147q102 0 166 55.5t64 157.5v639q0 16 -19 16h-358q-102 0 -157.5 -59.5t-55.5 -163.5v-422z" />
<glyph unicode="h" horiz-adv-x="1030" d="M164 18v1403q0 18 16 19h29q16 0 16 -19v-483h8q57 106 218 106h151q125 0 200 -75.5t75 -202.5v-748q0 -18 -17 -18h-29q-16 0 -16 18v746q0 104 -55 163.5t-158 59.5h-147q-102 0 -166 -55t-64 -158v-756q0 -18 -16 -18h-29q-16 0 -16 18z" />
<glyph unicode="i" horiz-adv-x="409" d="M174 18v1008q0 18 16 18h29q16 0 17 -18v-1008q0 -18 -17 -18h-29q-16 0 -16 18zM174 1214v203q0 18 16 19h29q16 0 17 -19v-203q0 -18 -17 -18h-29q-16 0 -16 18z" />
<glyph unicode="j" horiz-adv-x="409" d="M-98 -231q0 16 18 16h41q102 0 157.5 59.5t55.5 163.5v1018q0 18 16 18h29q16 0 17 -18v-1020q0 -127 -75 -202.5t-200 -75.5h-41q-18 0 -18 16v25zM174 1214v203q0 18 16 19h29q16 0 17 -19v-203q0 -18 -17 -18h-29q-16 0 -16 18z" />
<glyph unicode="k" horiz-adv-x="860" d="M164 18v1403q0 18 16 19h29q16 0 16 -19v-1403q0 -18 -16 -18h-29q-16 0 -16 18zM393 528q-4 6 -4 12t4 13l324 477q10 14 33 14h28q23 0 8 -18l-325 -481v-8l368 -519q6 -7 6 -12q0 -6 -12 -6h-35q-23 0 -36 18z" />
<glyph unicode="l" horiz-adv-x="409" d="M174 18v1403q0 18 16 19h29q16 0 17 -19v-1403q-1 -18 -17 -18h-29q-16 0 -16 18z" />
<glyph unicode="m" horiz-adv-x="1558" d="M164 18v1008q0 18 16 18h29q16 0 16 -18v-88h8q57 106 218 106h90q180 0 247 -145q29 72 106 108.5t155 36.5h81q125 0 200 -75.5t75 -202.5v-748q0 -18 -16 -18h-29q-16 0 -17 18v746q0 104 -55 163.5t-158 59.5h-81q-104 0 -169 -60.5t-65 -162.5v-746q0 -18 -16 -18 h-29q-16 0 -16 18v746q0 104 -55.5 163.5t-157.5 59.5h-86q-102 0 -166 -55t-64 -158v-756q0 -18 -16 -18h-29q-16 0 -16 18z" />
<glyph unicode="n" horiz-adv-x="1030" d="M164 18v1008q0 18 16 18h29q16 0 16 -18v-88h8q57 106 218 106h151q125 0 200 -75.5t75 -202.5v-748q0 -18 -17 -18h-29q-16 0 -16 18v746q0 104 -55 163.5t-158 59.5h-147q-102 0 -166 -55t-64 -158v-756q0 -18 -16 -18h-29q-16 0 -16 18z" />
<glyph unicode="o" horiz-adv-x="1009" d="M143 279v487q0 127 75 202.5t200 75.5h174q125 0 199.5 -75.5t74.5 -202.5v-487q0 -127 -74.5 -203t-199.5 -76h-174q-125 0 -200 76t-75 203zM205 281q0 -104 55.5 -164t157.5 -60h174q102 0 157.5 59.5t55.5 164.5v483q0 104 -55.5 163.5t-157.5 59.5h-174 q-102 0 -157.5 -59.5t-55.5 -163.5v-483z" />
<glyph unicode="p" d="M164 -295v1321q0 18 16 18h29q16 0 16 -18v-88h8q57 106 218 106h151q125 0 200 -75.5t75 -202.5v-487q0 -127 -75 -203t-200 -76h-151q-160 0 -218 106h-8v-401q0 -18 -16 -18h-29q-16 0 -16 18zM225 270q0 -102 64 -157.5t166 -55.5h147q102 0 157.5 59.5t55.5 164.5 v483q0 104 -55 163.5t-158 59.5h-147q-102 0 -166 -55t-64 -158v-504z" />
<glyph unicode="q" d="M143 279v487q0 127 75 202.5t200 75.5h422q16 0 16 -18v-1321q0 -18 -16 -18h-29q-16 0 -16 18v406h-9q-29 -51 -72.5 -78t-73.5 -30t-79 -3h-143q-125 0 -200 76t-75 203zM205 281q0 -104 55 -164t158 -60h143q104 0 169 61t65 163v690q0 16 -19 16h-358 q-102 0 -157.5 -59.5t-55.5 -163.5v-483z" />
<glyph unicode="r" horiz-adv-x="620" d="M164 18v1008q0 18 16 18h29q16 0 16 -18v-92h8q23 41 79.5 75.5t146.5 34.5h82q18 0 18 -16v-24q0 -16 -18 -17h-84q-104 0 -168 -65.5t-64 -178.5v-725q0 -18 -16 -18h-29q-16 0 -16 18z" />
<glyph unicode="s" horiz-adv-x="878" d="M111 815q0 229 249 229h330q18 0 19 -16v-24q0 -16 -19 -17h-330q-94 0 -140 -43t-46 -98v-55q0 -66 34 -102t105 -60l269 -97q109 -31 141.5 -100.5t32.5 -194t-66 -181t-203 -56.5h-348q-18 0 -18 16v25q0 16 18 16h348q207 0 207 164v62q0 76 -26.5 123t-96.5 71 l-270 94q-106 37 -148 91.5t-42 152.5z" />
<glyph unicode="t" horiz-adv-x="708" d="M61 1004v24q0 16 19 16h135q18 0 18 17v160q0 18 17 18h29q16 0 16 -18v-160q0 -16 18 -17h265q18 0 18 -16v-24q0 -16 -18 -17h-265q-18 0 -18 -16v-697q0 -102 60.5 -159.5t164.5 -57.5h78q18 0 18 -16v-25q0 -16 -18 -16h-78q-127 0 -207 73.5t-80 198.5v699 q0 16 -18 16h-135q-18 0 -19 17z" />
<glyph unicode="u" horiz-adv-x="1030" d="M154 279v747q0 18 16 18h29q16 0 16 -18v-745q0 -104 55.5 -164t157.5 -60h147q102 0 166 55.5t64 157.5v756q0 18 16 18h29q16 0 16 -18v-1008q0 -18 -16 -18h-29q-16 0 -16 18v88h-8q-57 -106 -217 -106h-152q-125 0 -199.5 76t-74.5 203z" />
<glyph unicode="v" horiz-adv-x="823" d="M43 1026q-1 4 -1 8q0 10 13 10h33q14 0 21 -18l299 -942h8l299 942q6 18 20 18h33q14 0 14 -10q0 -3 -2 -8l-323 -1008q-6 -18 -23 -18h-45q-16 0 -22 18z" />
<glyph unicode="w" horiz-adv-x="1390" d="M43 1026q-1 4 -1 8q0 10 13 10h31q14 0 20 -18l283 -942h8l262 942q4 18 23 18h29q18 0 22 -18l258 -942h8l283 942q6 18 21 18h32q14 0 14 -11q0 -3 -1 -7l-308 -1008q-6 -18 -22 -18h-43q-16 0 -23 18l-254 912h-8l-254 -912q-6 -18 -22 -18h-41q-16 0 -23 18z" />
<glyph unicode="x" horiz-adv-x="819" d="M57 18l308 514l-289 494q-12 18 6 18h39q14 0 26 -18l259 -446h8l252 446q12 18 26 18h39q18 0 6 -18l-284 -489l309 -519q5 -7 5 -12q0 -6 -11 -6h-47q-8 0 -21 18l-274 474h-8l-275 -474q-13 -18 -27 -18h-41q-11 0 -11 6q0 5 5 12z" />
<glyph unicode="y" horiz-adv-x="933" d="M63 1026q-1 4 -1 8q0 10 14 10h33q14 0 20 -18l334 -911h8l334 911q6 18 20 18h33q14 0 14 -10q0 -4 -2 -8l-348 -952q-63 -182 -96 -236q-88 -137 -246 -139h-59q-18 0 -19 16v25q0 16 19 16h59q82 0 116 30t50 43t35.5 53t26.5 52q37 82 47 121h-21q-16 0 -22 19z" />
<glyph unicode="z" horiz-adv-x="804" d="M72 16v19q0 12 4 18l563 926v8h-537q-18 0 -18 17v24q0 16 18 16h600q18 0 19 -16v-24q0 -10 -4 -17l-561 -921v-9h559q18 0 18 -16v-25q0 -16 -18 -16h-625q-18 0 -18 16z" />
<glyph unicode="{" horiz-adv-x="600" d="M82 541v24q0 16 18 17q70 0 104 38.5t34 129.5v288q0 131 53.5 205t159.5 74h8q18 0 18 -17v-24q0 -16 -18 -16h-8q-84 0 -118 -56.5t-34 -167.5v-288q0 -160 -106 -195q106 -35 106 -195v-286q0 -111 34 -167.5t118 -56.5h8q18 0 18 -16v-25q0 -16 -18 -16h-8 q-106 0 -159.5 74t-53.5 205v286q0 90 -34 129t-104 39q-18 0 -18 17z" />
<glyph unicode="|" horiz-adv-x="409" d="M174 18v1280q0 18 16 19h29q17 -1 17 -19v-1280q0 -18 -17 -18h-29q-16 0 -16 18z" />
<glyph unicode="}" horiz-adv-x="600" d="M82 -168q0 16 18 16h9q84 0 117.5 56.5t33.5 167.5v286q0 160 107 195q-106 35 -107 195v288q0 111 -33.5 167.5t-117.5 56.5h-9q-18 0 -18 16v24q0 16 18 17h9q106 0 159.5 -74t53.5 -205v-288q0 -90 33.5 -129t103.5 -39q18 0 18 -17v-24q0 -16 -18 -17 q-70 0 -103.5 -39t-33.5 -129v-286q0 -131 -53.5 -205t-159.5 -74h-9q-18 0 -18 16v25z" />
<glyph unicode="~" horiz-adv-x="1048" d="M143 645v19q0 14 51.5 36.5t128 22.5t208 -29.5t182.5 -29.5t176 41q16 0 16 -21v-18q0 -14 -51 -37t-125 -23t-208 30t-185 30t-176 -41q-16 0 -17 20z" />
<glyph unicode="&#xa1;" horiz-adv-x="485" d="M205 18v172q0 553 18 689q5 22 15 22h8q10 0 15 -30.5t12.5 -264t7.5 -416.5v-172q0 -18 -17 -18h-43q-16 0 -16 18zM209 1055v243q0 18 16 19h35q16 0 16 -19v-243q0 -19 -16 -19h-35q-16 0 -16 19z" />
<glyph unicode="&#xa2;" horiz-adv-x="839" d="M143 279v487q0 127 75 202.5t200 75.5h84v195q0 18 16 18h29q16 0 16 -18v-195h187q18 0 18 -16v-24q0 -16 -18 -17h-332q-102 0 -157.5 -59.5t-55.5 -163.5v-483q0 -104 55 -164t158 -60h332q18 0 18 -16v-25q0 -16 -18 -16h-187v-164q0 -18 -16 -18h-29q-16 0 -16 18 v164h-84q-125 0 -200 76t-75 203z" />
<glyph unicode="&#xa3;" horiz-adv-x="1064" d="M82 16v25q0 16 18 16h25q41 0 74.5 44t33.5 104v368h-133q-18 0 -18 17v24q0 16 18 17h133v413q0 127 75 200t200 73h133q125 0 199.5 -73t74.5 -200v-59q0 -18 -16 -18h-29q-16 0 -16 18v57q0 104 -55.5 161t-157.5 57h-133q-102 0 -157.5 -56.5t-55.5 -161.5v-411h360 q18 0 19 -17v-24q0 -16 -19 -17h-360v-364q0 -53 -12 -88q-20 -55 -45 -55v-9h665q18 0 19 -16v-25q0 -16 -19 -16h-803q-18 0 -18 16z" />
<glyph unicode="&#xa5;" horiz-adv-x="997" d="M63 1298q-8 18 11 19h39q14 0 22 -19l359 -716h8l358 716q8 18 23 19h39q20 0 10 -19l-301 -596h278q18 0 19 -16v-24q0 -16 -19 -17h-307l-74 -143v-86h381q18 0 19 -17v-24q0 -16 -19 -17h-381v-340q0 -18 -16 -18h-29q-16 0 -16 18v340h-381q-18 0 -18 17v24 q0 16 18 17h381v86l-72 143h-309q-18 0 -18 17v24q0 16 18 16h281z" />
<glyph unicode="&#xa6;" horiz-adv-x="395" d="M164 18v510q0 18 16 19h35q16 -1 16 -19v-510q0 -18 -16 -18h-35q-16 0 -16 18zM164 788v510q0 18 16 19h35q16 -1 16 -19v-510q0 -18 -16 -18h-35q-16 0 -16 18z" />
<glyph unicode="&#xa7;" horiz-adv-x="909" d="M123 713v354q0 250 248 250h329q18 0 19 -17v-24q0 -16 -19 -16h-329q-88 0 -137.5 -50.5t-49.5 -137.5t34 -129t126 -58l227 -39q104 -18 159.5 -69.5t55.5 -155.5v-349q0 -127 -57 -199.5t-211 -72.5h-368q-18 0 -19 16v25q0 16 19 16h368q123 0 165 56.5t42 144.5 t-41 126t-123 52l-227 39q-211 41 -211 238zM184 713q0 -154 160 -183l227 -38q100 -16 154 -64v193q0 80 -41 117.5t-123 52.5l-227 38q-98 20 -150 72v-188z" />
<glyph unicode="&#xa8;" horiz-adv-x="667" d="M143 1194v227q0 18 17 19h28q16 0 17 -19v-227q0 -18 -17 -18h-28q-17 0 -17 18zM463 1194v227q0 18 16 19h29q16 0 16 -19v-227q0 -18 -16 -18h-29q-16 0 -16 18z" />
<glyph unicode="&#xa9;" horiz-adv-x="1490" d="M154 279v759q0 127 74.5 203t199.5 76h635q125 0 199.5 -76t74.5 -203v-759q0 -127 -74.5 -203t-199.5 -76h-635q-125 0 -199.5 76t-74.5 203zM215 281q0 -104 55.5 -164t157.5 -60h635q102 0 157.5 59.5t55.5 164.5v755q0 104 -55.5 164t-157.5 60h-635 q-102 0 -157.5 -59.5t-55.5 -164.5v-755zM463 479v344q0 125 63.5 181.5t190.5 56.5h43q127 0 190.5 -56.5t63.5 -181.5v-37q0 -18 -17 -18h-28q-16 0 -17 18v35q0 102 -44 142.5t-148 40.5h-43q-104 0 -148.5 -40t-44.5 -143v-340q0 -102 44 -142t149 -40h43q104 0 148 40 t44 142v47q0 18 17 19h28q16 0 17 -19v-49q0 -125 -63.5 -181t-190.5 -56h-43q-127 0 -190.5 56t-63.5 181z" />
<glyph unicode="&#xab;" horiz-adv-x="870" d="M143 508v29q0 16 19 38l272 283q8 10 15.5 6t7.5 -16v-33q0 -14 -11 -27l-256 -266l256 -266q11 -13 11 -27v-32q0 -12 -7.5 -16.5t-15.5 5.5l-272 283q-18 23 -19 39zM414 508v29q0 16 18 38l273 283q8 10 15 6t7 -16v-33q0 -14 -10 -27l-256 -266l256 -266 q10 -13 10 -27v-32q0 -12 -7 -16.5t-15 5.5l-273 283q-18 23 -18 39z" />
<glyph unicode="&#xad;" horiz-adv-x="638" d="M82 643v25q0 16 18 16h439q18 0 18 -16v-25q0 -16 -18 -16h-439q-18 0 -18 16z" />
<glyph unicode="&#xae;" horiz-adv-x="880" d="M143 1057v164q0 100 58.5 159.5t156.5 59.5h162q98 0 157.5 -59.5t59.5 -159.5v-164q0 -100 -59.5 -159.5t-157.5 -59.5h-162q-98 0 -156.5 59t-58.5 160zM190 1059q0 -82 44 -129t124 -47h162q80 0 124 47t44 129v160q0 82 -44 129t-124 47h-162q-80 0 -124 -47.5 t-44 -128.5v-160zM334 977v328q0 18 16 18h127q41 0 64.5 -24.5t23.5 -65.5v-47q0 -68 -53 -86l57 -123q8 -18 -6 -19h-20q-14 0 -19 13l-57 125h-86v-119q0 -18 -16 -19h-15q-16 1 -16 19zM381 1139h96q41 0 41 43v57q0 41 -41 41h-96v-141z" />
<glyph unicode="&#xaf;" horiz-adv-x="741" d="M143 1300v19q0 16 19 16h418q18 0 18 -16v-19q0 -16 -18 -16h-418q-18 0 -19 16z" />
<glyph unicode="&#xb0;" horiz-adv-x="565" d="M143 1147v199q0 96 101 96h75q47 0 75 -25.5t28 -70.5v-199q0 -47 -28 -73.5t-75 -26.5h-75q-100 0 -101 100zM201 1169q0 -43 13 -57t56 -14h25q43 0 56.5 14t13.5 57v148q0 43 -13.5 57.5t-56.5 14.5h-25q-43 0 -56 -14.5t-13 -57.5v-148z" />
<glyph unicode="&#xb1;" horiz-adv-x="1048" d="M143 293v24q1 17 19 17h725q18 0 18 -17v-24q0 -16 -18 -17h-725q-18 0 -19 17zM143 733v25q0 16 19 16h332v246q0 18 16 18h29q16 0 16 -18v-246h332q18 0 18 -16v-25q0 -16 -18 -16h-332v-246q0 -18 -16 -18h-29q-16 0 -16 18v246h-332q-18 0 -19 16z" />
<glyph unicode="&#xb4;" horiz-adv-x="534" d="M147 1194l140 227q7 19 30 19h62q8 0 11 -5t-3 -14l-188 -229q-12 -16 -29 -16h-16q-16 0 -7 18z" />
<glyph unicode="&#xb6;" horiz-adv-x="1032" d="M102 899v180q0 125 63.5 181.5t190.5 56.5h473q18 0 19 -17v-1282q0 -18 -17 -18h-28q-16 0 -17 18v1221q0 16 -18 16h-340q-18 0 -18 -16v-1221q-1 -18 -17 -18h-28q-16 0 -17 18v644q-123 2 -184.5 58t-61.5 179z" />
<glyph unicode="&#xb7;" horiz-adv-x="423" d="M174 530v244q0 18 16 19h43q17 -1 17 -19v-244q0 -18 -17 -18h-43q-16 0 -16 18z" />
<glyph unicode="&#xb8;" horiz-adv-x="520" d="M145 -139.5q-10 24.5 13 47.5l118 133h72l-133 -143v-9q82 0 122 -26.5t40 -89.5v-21q0 -117 -162 -117h-39q-18 0 -18 17v20q0 16 18 17h33q113 0 113 69v4q0 41 -25 57.5t-88 16.5h-19q-35 0 -45 24.5z" />
<glyph unicode="&#xbb;" horiz-adv-x="870" d="M143 197v32q0 14 11 27l256 266l-256 266q-11 13 -11 27v33q0 12 6.5 16t16.5 -6l272 -283q18 -23 19 -38v-29q0 -16 -19 -39l-272 -283q-10 -10 -16.5 -6t-6.5 17zM414 197v32q0 14 10 27l256 266l-256 266q-10 13 -10 27v33q0 12 6 16t16 -6l273 -283q18 -23 18 -38 v-29q0 -16 -18 -39l-273 -283q-10 -10 -16 -6t-6 17z" />
<glyph unicode="&#xbf;" horiz-adv-x="972" d="M164 272v72q0 113 98 195l82 69q61 51 75.5 87t14.5 106v80q0 18 17 18h28q16 0 17 -18v-72q0 -88 -23.5 -135t-99.5 -113l-64 -57q-84 -72 -84 -162v-68q0 -104 55.5 -160.5t157.5 -56.5h97q102 0 157.5 56.5t55.5 160.5v97q0 18 16 18h29q16 0 16 -18v-99 q0 -127 -75 -199.5t-199 -72.5h-97q-125 0 -199.5 72.5t-74.5 199.5zM428 1053v243q0 18 16 19h43q16 0 17 -19v-243q0 -18 -17 -19h-43q-16 1 -16 19z" />
<glyph unicode="&#xc0;" horiz-adv-x="1077" d="M63 18l431 1280q6 18 20 19h49q14 0 21 -19l430 -1280q6 -18 -13 -18h-30q-14 0 -21 18l-125 357h-573l-125 -357q-9 -18 -23 -18h-28q-18 0 -13 18zM274 436h529l-260 803h-8zM302 1707q3 5 11 5h62q23 0 31 -18l139 -228q10 -18 -6 -18h-17q-16 0 -28 16l-189 230 q-6 8 -3 13z" />
<glyph unicode="&#xc1;" horiz-adv-x="1077" d="M63 18l431 1280q6 18 20 19h49q14 0 21 -19l430 -1280q6 -18 -13 -18h-30q-14 0 -21 18l-125 357h-573l-125 -357q-9 -18 -23 -18h-28q-18 0 -13 18zM274 436h529l-260 803h-8zM535 1466l139 228q11 18 31 18h61q8 0 11 -5t-3 -13l-188 -230q-12 -16 -29 -16h-16 q-16 0 -6 18z" />
<glyph unicode="&#xc2;" horiz-adv-x="1077" d="M63 18l431 1280q6 18 20 19h49q14 0 21 -19l430 -1280q6 -18 -13 -18h-30q-14 0 -21 18l-125 357h-573l-125 -357q-9 -18 -23 -18h-28q-18 0 -13 18zM274 436h529l-260 803h-8zM358 1470l131 224q12 18 39 18h21q27 0 39 -18l131 -224q15 -22 -8 -22h-29q-18 0 -23 10 l-120 215l-121 -215q-4 -10 -23 -10h-28q-23 0 -9 22z" />
<glyph unicode="&#xc3;" horiz-adv-x="1077" d="M63 18l431 1280q6 18 20 19h49q14 0 21 -19l430 -1280q6 -18 -13 -18h-30q-14 0 -21 18l-125 357h-573l-125 -357q-9 -18 -23 -18h-28q-18 0 -13 18zM274 436h529l-260 803h-8zM328 1597v80q0 18 16 19h14q16 0 17 -19v-78q0 -68 13 -93t48 -25t48.5 20.5t35 89t45 90 t80.5 21.5t81 -36t24 -124v-86q0 -18 -17 -18h-14q-16 0 -17 18v84q0 68 -13 93.5t-52 25.5t-55 -37q-4 -10 -22.5 -72.5t-44.5 -87t-83 -24.5t-80.5 35.5t-23.5 123.5z" />
<glyph unicode="&#xc4;" horiz-adv-x="1077" d="M63 18l431 1280q6 18 20 19h49q14 0 21 -19l430 -1280q6 -18 -13 -18h-30q-14 0 -21 18l-125 357h-573l-125 -357q-9 -18 -23 -18h-28q-18 0 -13 18zM274 436h529l-260 803h-8zM348 1466v228q0 18 17 18h28q16 0 17 -18v-228q0 -18 -17 -18h-28q-17 0 -17 18zM668 1466 v228q0 18 16 18h29q16 0 16 -18v-228q0 -18 -16 -18h-29q-16 0 -16 18z" />
<glyph unicode="&#xc5;" horiz-adv-x="1077" d="M63 18l431 1280q6 18 20 19h49q14 0 21 -19l430 -1280q6 -18 -13 -18h-30q-14 0 -21 18l-125 357h-573l-125 -357q-9 -18 -23 -18h-28q-18 0 -13 18zM274 436h529l-260 803h-8zM369 1579v45q0 78 40 119t115 41h21q76 0 118 -42t42 -118v-45q0 -76 -42 -119t-118 -43h-21 q-76 0 -115.5 42t-39.5 120zM418 1581q0 -117 106 -117h21q109 0 108 117v41q0 115 -108 115h-21q-106 0 -106 -115v-41z" />
<glyph unicode="&#xc6;" horiz-adv-x="1579" d="M2 18l727 1280q10 18 29 19h659q18 0 19 -17v-24q0 -16 -19 -16h-559q-18 0 -18 -17v-526q0 -16 18 -17h506q18 0 18 -16v-25q0 -16 -18 -16h-506q-18 0 -18 -16v-553q0 -16 18 -17h559q18 0 19 -16v-25q0 -16 -19 -16h-622q-16 0 -17 18v357h-502l-202 -357 q-11 -18 -25 -18h-39q-18 0 -8 18zM311 436h467v807h-8z" />
<glyph unicode="&#xc7;" horiz-adv-x="1112" d="M164 279v759q0 127 74.5 203t199.5 76h267q125 0 199.5 -76t74.5 -203v-102q0 -18 -16 -18h-29q-16 0 -16 18v100q0 104 -55.5 164t-157.5 60h-267q-102 0 -157.5 -59.5t-55.5 -164.5v-755q0 -104 55.5 -164t157.5 -60h267q102 0 157.5 59.5t55.5 164.5v100q0 18 16 18 h29q16 0 16 -18v-102q0 -127 -75 -203t-199 -76h-54l-94 -102v-9q82 0 122 -26.5t40 -89.5v-21q0 -117 -162 -117h-39q-18 0 -18 17v20q0 16 18 17h33q61 0 87 15t26 54v4q0 41 -25 57.5t-88 16.5h-19q-37 0 -46 24.5t14 47.5l82 92h-144q-125 0 -199.5 76t-74.5 203z" />
<glyph unicode="&#xc8;" horiz-adv-x="985" d="M184 18v1280q0 18 17 19h622q18 0 19 -17v-24q0 -16 -19 -16h-559q-18 0 -18 -17v-526q0 -16 18 -17h506q18 0 18 -16v-25q0 -16 -18 -16h-506q-18 0 -18 -16v-553q0 -16 18 -17h559q18 0 19 -16v-25q-1 -16 -19 -16h-622q-16 0 -17 18zM312 1707q3 5 12 5h61 q20 0 31 -18l139 -228q10 -18 -6 -18h-17q-16 0 -28 16l-189 230q-6 8 -3 13z" />
<glyph unicode="&#xc9;" horiz-adv-x="985" d="M184 18v1280q0 18 17 19h622q18 0 19 -17v-24q0 -16 -19 -16h-559q-18 0 -18 -17v-526q0 -16 18 -17h506q18 0 18 -16v-25q0 -16 -18 -16h-506q-18 0 -18 -16v-553q0 -16 18 -17h559q18 0 19 -16v-25q-1 -16 -19 -16h-622q-16 0 -17 18zM483 1466l140 228q7 18 30 18h62 q8 0 11 -5t-3 -13l-188 -230q-12 -16 -29 -16h-17q-16 0 -6 18z" />
<glyph unicode="&#xca;" horiz-adv-x="985" d="M184 18v1280q0 18 17 19h622q18 0 19 -17v-24q0 -16 -19 -16h-559q-18 0 -18 -17v-526q0 -16 18 -17h506q18 0 18 -16v-25q0 -16 -18 -16h-506q-18 0 -18 -16v-553q0 -16 18 -17h559q18 0 19 -16v-25q-1 -16 -19 -16h-622q-16 0 -17 18zM332 1470l131 224q12 18 39 18h20 q27 0 39 -18l131 -224q15 -22 -8 -22h-29q-16 0 -22 10l-121 215l-121 -215q-6 -10 -22 -10h-29q-23 0 -8 22z" />
<glyph unicode="&#xcb;" horiz-adv-x="985" d="M184 18v1280q0 18 17 19h622q18 0 19 -17v-24q0 -16 -19 -16h-559q-18 0 -18 -17v-526q0 -16 18 -17h506q18 0 18 -16v-25q0 -16 -18 -16h-506q-18 0 -18 -16v-553q0 -16 18 -17h559q18 0 19 -16v-25q-1 -16 -19 -16h-622q-16 0 -17 18zM322 1466v228q0 18 16 18h29 q16 0 16 -18v-228q0 -18 -16 -18h-29q-16 0 -16 18zM641 1466v228q0 18 16 18h29q16 0 16 -18v-228q0 -18 -16 -18h-29q-16 0 -16 18z" />
<glyph unicode="&#xcc;" horiz-adv-x="450" d="M-1 1707q3 5 11 5h62q23 0 30 -18l140 -228q10 -18 -6 -18h-17q-16 0 -29 16l-188 230q-6 8 -3 13zM195 18v1280q0 18 16 19h29q16 -1 16 -19v-1280q0 -18 -16 -18h-29q-16 0 -16 18z" />
<glyph unicode="&#xcd;" horiz-adv-x="452" d="M195 18v1280q0 18 16 19h29q16 -1 16 -19v-1280q0 -18 -16 -18h-29q-16 0 -16 18zM211 1466l139 228q11 18 31 18h61q8 0 11.5 -5t-2.5 -13l-189 -230q-12 -16 -29 -16h-16q-16 0 -6 18z" />
<glyph unicode="&#xce;" horiz-adv-x="450" d="M45 1470l131 224q12 18 39 18h21q27 0 38 -18l132 -224q14 -22 -9 -22h-28q-16 0 -23 10l-121 215l-121 -215q-6 -10 -22 -10h-29q-23 0 -8 22zM195 18v1280q0 18 16 19h29q16 -1 16 -19v-1280q0 -18 -16 -18h-29q-16 0 -16 18z" />
<glyph unicode="&#xcf;" horiz-adv-x="450" d="M35 1466v228q0 18 16 18h29q16 0 16 -18v-228q0 -18 -16 -18h-29q-16 0 -16 18zM195 18v1280q0 18 16 19h29q16 -1 16 -19v-1280q0 -18 -16 -18h-29q-16 0 -16 18zM354 1466v228q0 18 17 18h28q16 0 17 -18v-228q0 -18 -17 -18h-28q-17 0 -17 18z" />
<glyph unicode="&#xd0;" horiz-adv-x="1024" d="M53 655v25q0 16 19 16h94q18 0 18 17v585q0 18 17 19h504q125 0 199.5 -76t74.5 -203v-759q0 -127 -74.5 -203t-199.5 -76h-504q-16 0 -17 18v605q0 16 -18 16h-94q-18 0 -19 16zM246 74q0 -17 18 -17h441q102 0 157.5 59.5t55.5 164.5v755q0 104 -55.5 164t-157.5 60 h-441q-18 0 -18 -17v-530q0 -16 18 -17h340q18 0 19 -16v-25q0 -16 -19 -16h-340q-18 0 -18 -16v-549z" />
<glyph unicode="&#xd1;" horiz-adv-x="1183" d="M184 18v1280q0 18 17 19h28q10 0 15 -8l686 -1162h8v1151q0 18 16 19h29q16 0 16 -19v-1280q0 -18 -16 -18h-20q-14 0 -25 16l-684 1158h-8v-1156q-1 -18 -17 -18h-28q-16 0 -17 18zM381 1597v80q0 18 16 19h15q16 0 16 -19v-78q0 -68 13.5 -93t48 -25t48 20.5t35 89 t45 90t81 21.5t81 -36t23.5 -124v-86q0 -18 -17 -18h-14q-16 0 -16 18v84q0 68 -13.5 93.5t-52.5 25.5t-55 -37q-4 -10 -22.5 -72.5t-44 -87t-83 -24.5t-81 35.5t-23.5 123.5z" />
<glyph unicode="&#xd2;" horiz-adv-x="1132" d="M164 279v759q0 127 74.5 203t199.5 76h256q125 0 200 -76t75 -203v-759q0 -127 -75 -203t-200 -76h-256q-125 0 -199.5 76t-74.5 203zM225 281q0 -104 55.5 -164t157.5 -60h256q102 0 157.5 59.5t55.5 164.5v755q0 104 -55 164t-158 60h-256q-102 0 -157.5 -59.5 t-55.5 -164.5v-755zM349 1707q3 5 11 5h62q20 0 31 -18l139 -228q10 -18 -6 -18h-17q-16 0 -28 16l-189 230q-6 8 -3 13z" />
<glyph unicode="&#xd3;" horiz-adv-x="1132" d="M164 279v759q0 127 74.5 203t199.5 76h256q125 0 200 -76t75 -203v-759q0 -127 -75 -203t-200 -76h-256q-125 0 -199.5 76t-74.5 203zM225 281q0 -104 55.5 -164t157.5 -60h256q102 0 157.5 59.5t55.5 164.5v755q0 104 -55 164t-158 60h-256q-102 0 -157.5 -59.5 t-55.5 -164.5v-755zM537 1466l139 228q8 18 31 18h61q8 0 11 -5t-3 -13l-188 -230q-12 -16 -29 -16h-16q-16 0 -6 18z" />
<glyph unicode="&#xd4;" horiz-adv-x="1132" d="M164 279v759q0 127 74.5 203t199.5 76h256q125 0 200 -76t75 -203v-759q0 -127 -75 -203t-200 -76h-256q-125 0 -199.5 76t-74.5 203zM225 281q0 -104 55.5 -164t157.5 -60h256q102 0 157.5 59.5t55.5 164.5v755q0 104 -55 164t-158 60h-256q-102 0 -157.5 -59.5 t-55.5 -164.5v-755zM385 1470l131 224q12 18 39 18h20q27 0 39 -18l131 -224q15 -22 -8 -22h-28q-16 0 -23 10l-121 215l-121 -215q-6 -10 -22 -10h-29q-23 0 -8 22z" />
<glyph unicode="&#xd5;" horiz-adv-x="1132" d="M164 279v759q0 127 74.5 203t199.5 76h256q125 0 200 -76t75 -203v-759q0 -127 -75 -203t-200 -76h-256q-125 0 -199.5 76t-74.5 203zM225 281q0 -104 55.5 -164t157.5 -60h256q102 0 157.5 59.5t55.5 164.5v755q0 104 -55 164t-158 60h-256q-102 0 -157.5 -59.5 t-55.5 -164.5v-755zM354 1597v80q0 18 17 19h14q16 0 16 -19v-78q0 -68 13.5 -93t48.5 -25t48 20.5t34.5 89t45 90t81 21.5t81 -36t23.5 -124v-86q0 -18 -16 -18h-15q-16 0 -16 18v84q0 68 -13.5 93.5t-52 25.5t-55.5 -37q-4 -10 -22.5 -72.5t-44 -87t-83 -24.5t-81 35.5 t-23.5 123.5z" />
<glyph unicode="&#xd6;" horiz-adv-x="1132" d="M164 279v759q0 127 74.5 203t199.5 76h256q125 0 200 -76t75 -203v-759q0 -127 -75 -203t-200 -76h-256q-125 0 -199.5 76t-74.5 203zM225 281q0 -104 55.5 -164t157.5 -60h256q102 0 157.5 59.5t55.5 164.5v755q0 104 -55 164t-158 60h-256q-102 0 -157.5 -59.5 t-55.5 -164.5v-755zM375 1466v228q0 18 16 18h29q16 0 16 -18v-228q0 -18 -16 -18h-29q-16 0 -16 18zM694 1466v228q0 18 17 18h28q16 0 17 -18v-228q0 -18 -17 -18h-28q-17 0 -17 18z" />
<glyph unicode="&#xd7;" horiz-adv-x="993" d="M211 393q-14 10 0 25l240 239l-240 240q-14 14 0 25l20 20q10 14 25 0l240 -240l239 240q14 14 25 0l20 -20q14 -10 0 -25l-239 -240l239 -239q14 -14 0 -25l-20 -20q-10 -14 -25 0l-239 239l-240 -239q-14 -14 -25 0z" />
<glyph unicode="&#xd8;" horiz-adv-x="1132" d="M100 33q-12 10 0 28l80 111q-16 53 -16 107v759q0 127 74.5 203t199.5 76h256q156 0 230 -113l61 84q12 16 27 8l18 -12q14 -10 0 -29l-78 -108q17 -54 17 -109v-759q0 -127 -75 -203t-200 -76h-256q-160 0 -229 115l-64 -88q-12 -14 -26 -7zM225 281q0 -29 2 -43 l658 913q-47 109 -191 109h-256q-102 0 -157.5 -60t-55.5 -164v-755zM248 168q47 -111 190 -111h256q102 0 157.5 60t55.5 164v755q0 31 -2 45z" />
<glyph unicode="&#xd9;" horiz-adv-x="1126" d="M174 279v1019q0 18 16 19h29q16 0 17 -19v-1017q0 -104 55 -164t158 -60h229q102 0 157.5 59.5t55.5 164.5v1017q0 19 16 19h29q16 0 16 -17v-1021q0 -127 -74.5 -203t-199.5 -76h-229q-125 0 -200 76t-75 203zM362 1707q3 5 11 5h61q20 0 31 -18l139 -228q10 -18 -6 -18 h-16q-16 0 -29 16l-188 230q-6 8 -3 13z" />
<glyph unicode="&#xda;" horiz-adv-x="1126" d="M174 279v1019q0 18 16 19h29q16 0 17 -19v-1017q0 -104 55 -164t158 -60h229q102 0 157.5 59.5t55.5 164.5v1017q0 19 16 19h29q16 0 16 -17v-1021q0 -127 -74.5 -203t-199.5 -76h-229q-125 0 -200 76t-75 203zM532 1466l140 228q7 18 30 18h62q8 0 11 -5t-3 -13 l-188 -230q-12 -16 -29 -16h-16q-16 0 -7 18z" />
<glyph unicode="&#xdb;" horiz-adv-x="1126" d="M174 279v1019q0 18 16 19h29q16 0 17 -19v-1017q0 -104 55 -164t158 -60h229q102 0 157.5 59.5t55.5 164.5v1017q0 19 16 19h29q16 0 16 -17v-1021q0 -127 -74.5 -203t-199.5 -76h-229q-125 0 -200 76t-75 203zM383 1470l131 224q12 18 39 18h20q27 0 39 -18l131 -224 q15 -22 -8 -22h-28q-18 0 -23 10l-121 215l-121 -215q-4 -10 -22 -10h-29q-23 0 -8 22z" />
<glyph unicode="&#xdc;" horiz-adv-x="1126" d="M174 279v1019q0 18 16 19h29q16 0 17 -19v-1017q0 -104 55 -164t158 -60h229q102 0 157.5 59.5t55.5 164.5v1017q0 19 16 19h29q16 0 16 -17v-1021q0 -127 -74.5 -203t-199.5 -76h-229q-125 0 -200 76t-75 203zM373 1466v228q0 18 16 18h29q16 0 16 -18v-228 q0 -18 -16 -18h-29q-16 0 -16 18zM692 1466v228q0 18 17 18h28q16 0 17 -18v-228q0 -18 -17 -18h-28q-17 0 -17 18z" />
<glyph unicode="&#xdd;" horiz-adv-x="995" d="M63 1298q-10 18 11 19h37q14 0 22 -19l361 -716h8l360 716q8 18 23 19h37q20 0 10 -19l-404 -796v-484q0 -18 -16 -18h-29q-16 0 -16 18v484zM475 1466l139 228q8 18 31 18h62q8 0 11 -5t-3 -13l-189 -230q-12 -16 -28 -16h-17q-16 0 -6 18z" />
<glyph unicode="&#xde;" horiz-adv-x="1024" d="M256 18v1280q0 18 16 19h29q16 0 16 -19v-237q0 -16 19 -17h254q125 0 199.5 -75.5t74.5 -202.5v-215q0 -127 -74.5 -203t-199.5 -76h-254q-18 0 -19 -16v-238q0 -18 -16 -18h-29q-16 0 -16 18zM317 346q1 -16 19 -16h254q102 0 157.5 59.5t55.5 163.5v211 q0 104 -55.5 163.5t-157.5 59.5h-254q-18 0 -19 -16v-625z" />
<glyph unicode="&#xdf;" horiz-adv-x="1103" d="M174 18v1020q0 127 75 203t200 76h206q125 0 200 -76t75 -203v-120q0 -86 -44 -151t-114 -99q78 -23 128 -92.5t50 -157.5v-139q0 -127 -74.5 -203t-199.5 -76h-211q-18 0 -19 16v25q0 16 19 16h211q102 0 157.5 59.5t55.5 164.5v135q0 102 -72 162.5t-178 60.5h-131 q-18 0 -19 14v27q1 16 19 16h131q104 0 166.5 59.5t62.5 164.5v116q0 104 -55 164t-158 60h-206q-102 0 -157.5 -59.5t-55.5 -164.5v-1018q0 -18 -17 -18h-29q-16 0 -16 18z" />
<glyph unicode="&#xe0;" d="M143 279v487q0 127 75 202.5t200 75.5h422q16 0 16 -18v-1008q0 -18 -16 -18h-29q-16 0 -16 18v88h-9q-57 -106 -217 -106h-151q-125 0 -200 76t-75 203zM205 281q0 -104 55 -164t158 -60h147q102 0 166 55.5t64 157.5v701q0 16 -19 16h-358q-102 0 -157.5 -59.5 t-55.5 -163.5v-483zM349 1434.5q3 5.5 11 5.5h62q20 0 31 -19l139 -227q10 -18 -6 -18h-17q-16 0 -28 16l-189 229q-6 8 -3 13.5z" />
<glyph unicode="&#xe1;" d="M143 279v487q0 127 75 202.5t200 75.5h422q16 0 16 -18v-1008q0 -18 -16 -18h-29q-16 0 -16 18v88h-9q-57 -106 -217 -106h-151q-125 0 -200 76t-75 203zM205 281q0 -104 55 -164t158 -60h147q102 0 166 55.5t64 157.5v701q0 16 -19 16h-358q-102 0 -157.5 -59.5 t-55.5 -163.5v-483zM502 1194l139 227q11 19 31 19h61q8 0 11.5 -5t-3.5 -14l-188 -229q-12 -16 -29 -16h-16q-16 0 -6 18z" />
<glyph unicode="&#xe2;" d="M143 279v487q0 127 75 202.5t200 75.5h422q16 0 16 -18v-1008q0 -18 -16 -18h-29q-16 0 -16 18v88h-9q-57 -106 -217 -106h-151q-125 0 -200 76t-75 203zM205 281q0 -104 55 -164t158 -60h147q102 0 166 55.5t64 157.5v701q0 16 -19 16h-358q-102 0 -157.5 -59.5 t-55.5 -163.5v-483zM354 1198l131 223q12 18 39 19h21q27 0 39 -19l131 -223q15 -22 -8 -22h-29q-18 0 -23 10l-120 215l-121 -215q-4 -10 -23 -10h-29q-23 0 -8 22z" />
<glyph unicode="&#xe3;" horiz-adv-x="1024" d="M143 279v487q0 127 75 202.5t200 75.5h422q16 0 16 -18v-1008q0 -18 -16 -18h-29q-16 0 -16 18v88h-9q-57 -106 -217 -106h-151q-125 0 -200 76t-75 203zM205 281q0 -104 55 -164t158 -60h147q102 0 166 55.5t64 157.5v701q0 16 -19 16h-358q-102 0 -157.5 -59.5 t-55.5 -163.5v-483zM344 1341v80q0 18 16 19h15q16 0 16 -19v-78q0 -68 13.5 -93t48 -25t48 20.5t35 89t45 90t81 21.5t81 -36t23.5 -124v-86q0 -18 -16 -18h-15q-16 0 -16 18v84q0 68 -13.5 93.5t-52.5 25.5t-55 -37q-4 -10 -22.5 -72.5t-44 -87t-83 -24.5t-81 35.5 t-23.5 123.5z" />
<glyph unicode="&#xe4;" d="M143 279v487q0 127 75 202.5t200 75.5h422q16 0 16 -18v-1008q0 -18 -16 -18h-29q-16 0 -16 18v88h-9q-57 -106 -217 -106h-151q-125 0 -200 76t-75 203zM205 281q0 -104 55 -164t158 -60h147q102 0 166 55.5t64 157.5v701q0 16 -19 16h-358q-102 0 -157.5 -59.5 t-55.5 -163.5v-483zM352 1194v227q0 18 17 19h28q16 0 17 -19v-227q0 -18 -17 -18h-28q-17 0 -17 18zM672 1194v227q0 18 16 19h29q16 0 16 -19v-227q0 -18 -16 -18h-29q-16 0 -16 18z" />
<glyph unicode="&#xe5;" d="M143 279v487q0 127 75 202.5t200 75.5h422q16 0 16 -18v-1008q0 -18 -16 -18h-29q-16 0 -16 18v88h-9q-57 -106 -217 -106h-151q-125 0 -200 76t-75 203zM205 281q0 -104 55 -164t158 -60h147q102 0 166 55.5t64 157.5v701q0 16 -19 16h-358q-102 0 -157.5 -59.5 t-55.5 -163.5v-483zM346 1274v86q0 76 37 107.5t115 31.5h28q156 0 156 -139v-86q0 -141 -156 -141h-28q-78 0 -115 32.5t-37 108.5zM395 1276q0 -55 23.5 -75.5t79.5 -20.5h28q57 0 81 20.5t24 75.5v82q0 53 -23.5 73.5t-81.5 20.5h-28q-55 0 -79 -20.5t-24 -73.5v-82z" />
<glyph unicode="&#xe6;" horiz-adv-x="1650" d="M143 279v57q0 127 75 202.5t200 75.5h358q18 0 19 17v133q0 104 -55.5 163.5t-157.5 59.5h-312q-18 0 -18 17v24q0 16 18 16h312q184 0 245 -141q66 141 254 141h152q125 0 199.5 -75.5t74.5 -202.5v-315q0 -20 -18 -21h-615q-18 0 -18 -16v-133q0 -104 55.5 -164 t157.5 -60h420q18 0 18 -16v-25q0 -16 -18 -16h-420q-186 0 -246 141q-63 -141 -254 -141h-151q-125 0 -200 76t-75 203zM205 281q0 -104 55 -164t158 -60h147q102 0 166 55.5t64 157.5v271q0 16 -19 16h-358q-102 0 -157.5 -59.5t-55.5 -163.5v-53zM856 504q0 -16 18 -17 h553q19 1 19 17v260q0 104 -55.5 163.5t-157.5 59.5h-148q-102 0 -165.5 -55t-63.5 -158v-270z" />
<glyph unicode="&#xe7;" horiz-adv-x="798" d="M143 279v487q0 127 75 202.5t200 75.5h291q18 0 18 -16v-24q0 -17 -18 -17h-291q-102 0 -157.5 -59.5t-55.5 -163.5v-483q0 -104 55 -164t158 -60h291q18 0 18 -16v-25q0 -16 -18 -16h-148l-94 -102v-9q82 0 122 -26.5t40 -89.5v-21q0 -117 -162 -117h-39q-18 0 -18 17 v20q0 16 18 17h33q113 0 112 69v4q0 41 -24.5 57.5t-87.5 16.5h-19q-37 0 -46 24.5t14 47.5l82 92h-74q-125 0 -200 76t-75 203z" />
<glyph unicode="&#xe8;" horiz-adv-x="1005" d="M143 279v487q0 127 75 202.5t200 75.5h180q125 0 199.5 -75.5t74.5 -202.5v-260q0 -20 -18 -21h-631q-18 0 -18 -16v-188q0 -104 55 -164t158 -60h420q18 0 18 -16v-25q0 -16 -18 -16h-420q-125 0 -200 76t-75 203zM205 559q0 -16 18 -16h570q18 0 18 16v205 q0 104 -55.5 163.5t-157.5 59.5h-180q-102 0 -157.5 -59.5t-55.5 -163.5v-205zM302 1434.5q3 5.5 11 5.5h62q23 0 31 -19l139 -227q10 -18 -6 -18h-17q-16 0 -28 16l-189 229q-6 8 -3 13.5z" />
<glyph unicode="&#xe9;" horiz-adv-x="1005" d="M143 279v487q0 127 75 202.5t200 75.5h180q125 0 199.5 -75.5t74.5 -202.5v-260q0 -20 -18 -21h-631q-18 0 -18 -16v-188q0 -104 55 -164t158 -60h420q18 0 18 -16v-25q0 -16 -18 -16h-420q-125 0 -200 76t-75 203zM205 559q0 -16 18 -16h570q18 0 18 16v205 q0 104 -55.5 163.5t-157.5 59.5h-180q-102 0 -157.5 -59.5t-55.5 -163.5v-205zM453 1194l139 227q11 19 31 19h61q8 0 11 -5t-3 -14l-188 -229q-12 -16 -29 -16h-16q-16 0 -6 18z" />
<glyph unicode="&#xea;" horiz-adv-x="1005" d="M143 279v487q0 127 75 202.5t200 75.5h180q125 0 199.5 -75.5t74.5 -202.5v-260q0 -20 -18 -21h-631q-18 0 -18 -16v-188q0 -104 55 -164t158 -60h420q18 0 18 -16v-25q0 -16 -18 -16h-420q-125 0 -200 76t-75 203zM205 559q0 -16 18 -16h570q18 0 18 16v205 q0 104 -55.5 163.5t-157.5 59.5h-180q-102 0 -157.5 -59.5t-55.5 -163.5v-205zM328 1198l131 223q12 18 39 19h20q27 0 39 -19l131 -223q15 -22 -8 -22h-29q-16 0 -22 10l-121 215l-121 -215q-6 -10 -22 -10h-29q-23 0 -8 22z" />
<glyph unicode="&#xeb;" horiz-adv-x="1005" d="M143 279v487q0 127 75 202.5t200 75.5h180q125 0 199.5 -75.5t74.5 -202.5v-260q0 -20 -18 -21h-631q-18 0 -18 -16v-188q0 -104 55 -164t158 -60h420q18 0 18 -16v-25q0 -16 -18 -16h-420q-125 0 -200 76t-75 203zM205 559q0 -16 18 -16h570q18 0 18 16v205 q0 104 -55.5 163.5t-157.5 59.5h-180q-102 0 -157.5 -59.5t-55.5 -163.5v-205zM317 1194v227q0 18 17 19h28q16 0 17 -19v-227q0 -18 -17 -18h-28q-17 0 -17 18zM637 1194v227q0 18 16 19h29q16 0 16 -19v-227q0 -18 -16 -18h-29q-16 0 -16 18z" />
<glyph unicode="&#xec;" horiz-adv-x="409" d="M-23 1434.5q3 5.5 11 5.5h61q20 0 31 -19l139 -227q10 -18 -6 -18h-16q-16 0 -29 16l-188 229q-6 8 -3 13.5zM174 18v1008q0 18 16 18h29q16 0 17 -18v-1008q0 -18 -17 -18h-29q-16 0 -16 18z" />
<glyph unicode="&#xed;" horiz-adv-x="405" d="M174 18v1008q0 18 16 18h29q16 0 17 -18v-1008q0 -18 -17 -18h-29q-16 0 -16 18zM186 1194l140 227q10 19 30 19h62q8 0 11 -5t-3 -14l-188 -229q-12 -16 -29 -16h-16q-16 0 -7 18z" />
<glyph unicode="&#xee;" horiz-adv-x="409" d="M25 1198l131 223q12 18 39 19h20q27 0 39 -19l131 -223q15 -22 -8 -22h-29q-16 0 -22 10l-121 215l-121 -215q-6 -10 -23 -10h-28q-23 0 -8 22zM174 18v1008q0 18 16 18h29q16 0 17 -18v-1008q0 -18 -17 -18h-29q-16 0 -16 18z" />
<glyph unicode="&#xef;" horiz-adv-x="409" d="M14 1194v227q0 18 17 19h28q16 0 17 -19v-227q0 -18 -17 -18h-28q-17 0 -17 18zM174 18v1008q0 18 16 18h29q16 0 17 -18v-1008q0 -18 -17 -18h-29q-16 0 -16 18zM334 1194v227q0 18 16 19h29q16 0 16 -19v-227q0 -18 -16 -18h-29q-16 0 -16 18z" />
<glyph unicode="&#xf0;" horiz-adv-x="989" d="M143 279v282q0 127 75 203t200 76h151q160 0 217 -107h9q0 90 -52 156l-227 256l-213 -180q-14 -8 -24 2l-11 14q-10 12 4 27l209 176l-176 198q-14 18 0 31l12 10q14 10 27 -4l180 -198l219 186q14 8 25 -2l10 -14q10 -14 -2 -25l-217 -184l232 -258q65 -76 65 -193 v-452q0 -127 -74.5 -203t-199.5 -76h-164q-125 0 -200 76t-75 203zM205 281q0 -104 55 -164t158 -60h164q102 0 157.5 60t55.5 164v288q0 102 -63.5 157.5t-166.5 55.5h-147q-102 0 -157.5 -59t-55.5 -164v-278z" />
<glyph unicode="&#xf1;" horiz-adv-x="1030" d="M164 18v1008q0 18 16 18h29q16 0 16 -18v-88h8q57 106 218 106h151q125 0 200 -75.5t75 -202.5v-748q0 -18 -17 -18h-29q-16 0 -16 18v746q0 104 -55 163.5t-158 59.5h-147q-102 0 -166 -55t-64 -158v-756q0 -18 -16 -18h-29q-16 0 -16 18zM309 1341v80q0 18 17 19h14 q16 0 16 -19v-78q0 -68 13.5 -93t48.5 -25t48 20.5t34.5 89t45 90t81 21.5t81 -36t23.5 -124v-86q0 -18 -16 -18h-15q-16 0 -16 18v84q0 68 -13.5 93.5t-52 25.5t-55.5 -37q-4 -10 -22.5 -72.5t-44 -87t-83 -24.5t-81 35.5t-23.5 123.5z" />
<glyph unicode="&#xf2;" horiz-adv-x="1009" d="M143 279v487q0 127 75 202.5t200 75.5h174q125 0 199.5 -75.5t74.5 -202.5v-487q0 -127 -74.5 -203t-199.5 -76h-174q-125 0 -200 76t-75 203zM205 281q0 -104 55.5 -164t157.5 -60h174q102 0 157.5 59.5t55.5 164.5v483q0 104 -55.5 163.5t-157.5 59.5h-174 q-102 0 -157.5 -59.5t-55.5 -163.5v-483zM282 1434.5q3 5.5 11 5.5h61q23 0 31 -19l139 -227q10 -18 -6 -18h-16q-16 0 -29 16l-188 229q-6 8 -3 13.5z" />
<glyph unicode="&#xf3;" horiz-adv-x="1009" d="M143 279v487q0 127 75 202.5t200 75.5h174q125 0 199.5 -75.5t74.5 -202.5v-487q0 -127 -74.5 -203t-199.5 -76h-174q-125 0 -200 76t-75 203zM205 281q0 -104 55.5 -164t157.5 -60h174q102 0 157.5 59.5t55.5 164.5v483q0 104 -55.5 163.5t-157.5 59.5h-174 q-102 0 -157.5 -59.5t-55.5 -163.5v-483zM487 1194l140 227q7 19 30 19h62q8 0 11 -5t-3 -14l-188 -229q-12 -16 -29 -16h-16q-16 0 -7 18z" />
<glyph unicode="&#xf4;" horiz-adv-x="1009" d="M143 279v487q0 127 75 202.5t200 75.5h174q125 0 199.5 -75.5t74.5 -202.5v-487q0 -127 -74.5 -203t-199.5 -76h-174q-125 0 -200 76t-75 203zM205 281q0 -104 55.5 -164t157.5 -60h174q102 0 157.5 59.5t55.5 164.5v483q0 104 -55.5 163.5t-157.5 59.5h-174 q-102 0 -157.5 -59.5t-55.5 -163.5v-483zM324 1198l131 223q12 18 39 19h20q27 0 39 -19l131 -223q15 -22 -8 -22h-29q-16 0 -22 10l-121 215l-121 -215q-6 -10 -23 -10h-28q-23 0 -8 22z" />
<glyph unicode="&#xf5;" horiz-adv-x="1009" d="M143 279v487q0 127 75 202.5t200 75.5h174q125 0 199.5 -75.5t74.5 -202.5v-487q0 -127 -74.5 -203t-199.5 -76h-174q-125 0 -200 76t-75 203zM205 281q0 -104 55.5 -164t157.5 -60h174q102 0 157.5 59.5t55.5 164.5v483q0 104 -55.5 163.5t-157.5 59.5h-174 q-102 0 -157.5 -59.5t-55.5 -163.5v-483zM293 1341v80q0 18 16 19h15q16 0 16 -19v-78q0 -68 13.5 -93t48 -25t48 20.5t35 89t45 90t81 21.5t81 -36t23.5 -124v-86q0 -18 -17 -18h-14q-16 0 -16 18v84q0 68 -13.5 93.5t-52.5 25.5t-55 -37q-4 -10 -22.5 -72.5t-44 -87 t-83 -24.5t-81 35.5t-23.5 123.5z" />
<glyph unicode="&#xf6;" horiz-adv-x="1009" d="M143 279v487q0 127 75 202.5t200 75.5h174q125 0 199.5 -75.5t74.5 -202.5v-487q0 -127 -74.5 -203t-199.5 -76h-174q-125 0 -200 76t-75 203zM205 281q0 -104 55.5 -164t157.5 -60h174q102 0 157.5 59.5t55.5 164.5v483q0 104 -55.5 163.5t-157.5 59.5h-174 q-102 0 -157.5 -59.5t-55.5 -163.5v-483zM313 1194v227q0 18 17 19h28q16 0 17 -19v-227q0 -18 -17 -18h-28q-17 0 -17 18zM633 1194v227q0 18 16 19h29q16 0 16 -19v-227q0 -18 -16 -18h-29q-16 0 -16 18z" />
<glyph unicode="&#xf7;" horiz-adv-x="1069" d="M154 645v25q0 16 18 16h725q18 0 18 -16v-25q0 -16 -18 -16h-725q-18 0 -18 16zM504 295v131q0 18 16 18h29q16 0 16 -18v-131q0 -18 -16 -19h-29q-16 1 -16 19zM504 889v131q0 18 16 18h29q16 0 16 -18v-131q0 -18 -16 -19h-29q-16 1 -16 19z" />
<glyph unicode="&#xf8;" horiz-adv-x="1067" d="M68 76q-12 12 0 24l110 111q-6 31 -6 68v487q0 127 75 202.5t199 75.5h175q180 0 247 -143l86 86q12 12 25 2l20 -20q12 -10 -2 -25l-108 -108q6 -33 6 -70v-487q0 -127 -75 -203t-199 -76h-175q-180 0 -247 145l-86 -88q-14 -14 -25 0zM233 266l588 588 q-43 133 -200 133h-175q-102 0 -157.5 -59.5t-55.5 -163.5v-498zM246 190q43 -133 200 -133h175q102 0 157.5 60t55.5 164v499z" />
<glyph unicode="&#xf9;" horiz-adv-x="1030" d="M154 279v747q0 18 16 18h29q16 0 16 -18v-745q0 -104 55.5 -164t157.5 -60h147q102 0 166 55.5t64 157.5v756q0 18 16 18h29q16 0 16 -18v-1008q0 -18 -16 -18h-29q-16 0 -16 18v88h-8q-57 -106 -217 -106h-152q-125 0 -199.5 76t-74.5 203zM292 1434.5q3 5.5 11 5.5h62 q20 0 30 -19l140 -227q9 -18 -7 -18h-16q-16 0 -29 16l-188 229q-6 8 -3 13.5z" />
<glyph unicode="&#xfa;" horiz-adv-x="1030" d="M154 279v747q0 18 16 18h29q16 0 16 -18v-745q0 -104 55.5 -164t157.5 -60h147q102 0 166 55.5t64 157.5v756q0 18 16 18h29q16 0 16 -18v-1008q0 -18 -16 -18h-29q-16 0 -16 18v88h-8q-57 -106 -217 -106h-152q-125 0 -199.5 76t-74.5 203zM492 1194l139 227q8 19 31 19 h61q8 0 11 -5t-3 -14l-188 -229q-12 -16 -29 -16h-16q-16 0 -6 18z" />
<glyph unicode="&#xfb;" horiz-adv-x="1030" d="M154 279v747q0 18 16 18h29q16 0 16 -18v-745q0 -104 55.5 -164t157.5 -60h147q102 0 166 55.5t64 157.5v756q0 18 16 18h29q16 0 16 -18v-1008q0 -18 -16 -18h-29q-16 0 -16 18v88h-8q-57 -106 -217 -106h-152q-125 0 -199.5 76t-74.5 203zM330 1198l131 223 q12 18 39 19h20q27 0 39 -19l131 -223q15 -22 -8 -22h-29q-18 0 -22 10l-121 215l-121 -215q-4 -10 -22 -10h-29q-23 0 -8 22z" />
<glyph unicode="&#xfc;" horiz-adv-x="1030" d="M154 279v747q0 18 16 18h29q16 0 16 -18v-745q0 -104 55.5 -164t157.5 -60h147q102 0 166 55.5t64 157.5v756q0 18 16 18h29q16 0 16 -18v-1008q0 -18 -16 -18h-29q-16 0 -16 18v88h-8q-57 -106 -217 -106h-152q-125 0 -199.5 76t-74.5 203zM319 1194v227q0 18 17 19h29 q16 0 16 -19v-227q0 -18 -16 -18h-29q-17 0 -17 18zM639 1194v227q0 18 16 19h29q16 0 16 -19v-227q0 -18 -16 -18h-29q-16 0 -16 18z" />
<glyph unicode="&#xfd;" horiz-adv-x="933" d="M63 1026q-6 18 13 18h33q14 0 20 -18l334 -911h8l334 911q6 18 20 18h33q18 0 12 -18l-348 -952q-63 -182 -96 -236q-88 -137 -246 -139h-59q-18 0 -19 16v25q0 16 19 16h59q82 0 116 30t50 43t35.5 53t26.5 52q37 82 47 121h-21q-16 0 -22 19zM455 1194l139 227 q8 19 31 19h61q8 0 11 -5t-3 -14l-188 -229q-12 -16 -29 -16h-16q-16 0 -6 18z" />
<glyph unicode="&#xfe;" horiz-adv-x="1030" d="M174 -254v1675q0 18 16 19h29q16 0 17 -19v-483h8q57 106 217 106h151q125 0 200 -75.5t75 -202.5v-487q0 -127 -75 -203t-200 -76h-151q-160 0 -217 106h-8v-360q0 -18 -17 -18h-29q-16 0 -16 18zM236 270q0 -102 63.5 -157.5t165.5 -55.5h147q102 0 157.5 59.5 t55.5 164.5v483q0 104 -55 163.5t-158 59.5h-147q-102 0 -165.5 -55t-63.5 -158v-504z" />
<glyph unicode="&#xff;" horiz-adv-x="933" d="M63 1026q-6 18 13 18h33q14 0 20 -18l334 -911h8l334 911q6 18 20 18h33q18 0 12 -18l-348 -952q-63 -182 -96 -236q-88 -137 -246 -139h-59q-18 0 -19 16v25q0 16 19 16h59q82 0 116 30t50 43t35.5 53t26.5 52q37 82 47 121h-21q-16 0 -22 19zM276 1194v227q0 18 17 19 h29q16 0 16 -19v-227q0 -18 -16 -18h-29q-17 0 -17 18zM596 1194v227q0 18 16 19h29q16 0 16 -19v-227q0 -18 -16 -18h-29q-16 0 -16 18z" />
<glyph unicode="&#x152;" horiz-adv-x="1583" d="M164 279v759q0 127 74.5 203t199.5 76h963q18 0 18 -17v-24q0 -16 -18 -16h-559q-18 0 -19 -17v-526q0 -16 19 -17h506q18 0 18 -16v-25q0 -16 -18 -16h-506q-18 0 -19 -16v-553q0 -16 19 -17h559q18 0 18 -16v-25q0 -16 -18 -16h-963q-125 0 -199.5 76t-74.5 203z M225 281q0 -104 55.5 -164t157.5 -60h305q18 0 19 17v1169q0 16 -19 17h-305q-102 0 -157.5 -59.5t-55.5 -164.5v-755z" />
<glyph unicode="&#x153;" horiz-adv-x="1677" d="M143 279v487q0 127 75 202.5t200 75.5h174q174 0 244 -137q70 137 243 137h181q125 0 199.5 -75.5t74.5 -202.5v-260q0 -20 -18 -21h-631q-18 0 -19 -16v-188q0 -104 55.5 -164t157.5 -60h420q18 0 19 -16v-25q0 -16 -19 -16h-420q-174 0 -243 137q-70 -137 -244 -137 h-174q-125 0 -200 76t-75 203zM205 281q0 -104 55.5 -164t157.5 -60h174q102 0 157.5 59.5t55.5 164.5v483q0 104 -55.5 163.5t-157.5 59.5h-174q-102 0 -157.5 -59.5t-55.5 -163.5v-483zM866 559q1 -16 19 -16h569q18 0 19 16v205q0 104 -55.5 163.5t-157.5 59.5h-181 q-102 0 -157.5 -59.5t-55.5 -163.5v-205z" />
<glyph unicode="&#x178;" horiz-adv-x="995" d="M63 1298q-10 18 11 19h37q14 0 22 -19l361 -716h8l360 716q8 18 23 19h37q20 0 10 -19l-404 -796v-484q0 -18 -16 -18h-29q-16 0 -16 18v484zM307 1466v228q0 18 17 18h28q16 0 17 -18v-228q0 -18 -17 -18h-28q-17 0 -17 18zM627 1466v228q0 18 16 18h29q16 0 16 -18 v-228q0 -18 -16 -18h-29q-16 0 -16 18z" />
<glyph unicode="&#x2c6;" horiz-adv-x="657" d="M147 1198l132 223q12 18 38 19h21q27 0 39 -19l131 -223q15 -22 -8 -22h-29q-16 0 -22 10l-121 215l-121 -215q-6 -10 -23 -10h-28q-23 0 -9 22z" />
<glyph unicode="&#x2dc;" horiz-adv-x="765" d="M143 1341v80q0 18 17 19h14q16 0 16 -19v-78q0 -68 13.5 -93t48.5 -25t48 20.5t34.5 89t45 90t81 21.5t81 -36t23.5 -124v-86q0 -18 -16 -18h-14q-16 0 -17 18v84q0 68 -13 93.5t-52 25.5t-56 -37q-4 -10 -22.5 -72.5t-44 -87t-83 -24.5t-81 35.5t-23.5 123.5z" />
<glyph unicode="&#x2000;" horiz-adv-x="892" />
<glyph unicode="&#x2001;" horiz-adv-x="1784" />
<glyph unicode="&#x2002;" horiz-adv-x="892" />
<glyph unicode="&#x2003;" horiz-adv-x="1784" />
<glyph unicode="&#x2004;" horiz-adv-x="594" />
<glyph unicode="&#x2005;" horiz-adv-x="446" />
<glyph unicode="&#x2006;" horiz-adv-x="297" />
<glyph unicode="&#x2007;" horiz-adv-x="297" />
<glyph unicode="&#x2008;" horiz-adv-x="223" />
<glyph unicode="&#x2009;" horiz-adv-x="356" />
<glyph unicode="&#x200a;" horiz-adv-x="99" />
<glyph unicode="&#x2010;" horiz-adv-x="638" d="M82 643v25q0 16 18 16h439q18 0 18 -16v-25q0 -16 -18 -16h-439q-18 0 -18 16z" />
<glyph unicode="&#x2011;" horiz-adv-x="638" d="M82 643v25q0 16 18 16h439q18 0 18 -16v-25q0 -16 -18 -16h-439q-18 0 -18 16z" />
<glyph unicode="&#x2012;" horiz-adv-x="638" d="M82 643v25q0 16 18 16h439q18 0 18 -16v-25q0 -16 -18 -16h-439q-18 0 -18 16z" />
<glyph unicode="&#x2013;" horiz-adv-x="843" d="M82 643v25q0 16 18 16h643q18 0 19 -16v-25q-1 -16 -19 -16h-643q-18 0 -18 16z" />
<glyph unicode="&#x2014;" horiz-adv-x="1048" d="M82 643v25q0 16 18 16h848q18 0 19 -16v-25q0 -16 -19 -16h-848q-18 0 -18 16z" />
<glyph unicode="&#x2018;" horiz-adv-x="362" d="M143 848v162q0 31 54 295q4 12 13 12t9 -12v-457q0 -18 -16 -19h-43q-17 1 -17 19z" />
<glyph unicode="&#x2019;" horiz-adv-x="362" d="M143 842v456q0 18 17 19h43q16 -1 16 -19v-161q0 -31 -53 -295q-2 -12 -12.5 -12.5t-10.5 12.5z" />
<glyph unicode="&#x201a;" horiz-adv-x="382" d="M154 -199v457q0 18 16 18h43q16 0 16 -18v-162q0 -31 -53 -295q-4 -12 -13 -12t-9 12z" />
<glyph unicode="&#x201c;" horiz-adv-x="663" d="M143 848v162q0 31 54 295q4 12 13 12t9 -12v-457q0 -18 -16 -19h-43q-17 1 -17 19zM444 848v162q0 31 54 295q2 12 12 12t10 -12v-457q0 -18 -16 -19h-43q-17 1 -17 19z" />
<glyph unicode="&#x201d;" horiz-adv-x="663" d="M143 842v456q0 18 17 19h43q16 -1 16 -19v-161q0 -31 -53 -295q-2 -12 -12.5 -12.5t-10.5 12.5zM444 842v456q0 18 17 19h43q16 -1 16 -19v-161q0 -31 -53 -295q-4 -12 -13.5 -12.5t-9.5 12.5z" />
<glyph unicode="&#x201e;" horiz-adv-x="684" d="M154 -199v457q0 18 16 18h43q16 0 16 -18v-162q0 -31 -53 -295q-4 -12 -13 -12t-9 12zM455 -199v457q0 18 16 18h43q16 0 16 -18v-162q0 -31 -53 -295q-2 -12 -12 -12t-10 12z" />
<glyph unicode="&#x2022;" horiz-adv-x="546" d="M205 510v285q0 18 16 18h105q16 0 16 -18v-285q0 -18 -16 -18h-105q-16 0 -16 18z" />
<glyph unicode="&#x2026;" horiz-adv-x="1202" d="M154 18v244q0 18 16 19h43q16 -1 16 -19v-244q0 -18 -16 -18h-43q-16 0 -16 18zM563 18v244q0 18 17 19h43q16 -1 16 -19v-244q0 -18 -16 -18h-43q-16 0 -17 18zM973 18v244q0 18 16 19h43q17 -1 17 -19v-244q0 -18 -17 -18h-43q-16 0 -16 18z" />
<glyph unicode="&#x202f;" horiz-adv-x="356" />
<glyph unicode="&#x2039;" horiz-adv-x="600" d="M143 508v29q0 16 19 38l272 283q8 10 15.5 6t7.5 -16v-33q0 -14 -11 -27l-256 -266l256 -266q11 -13 11 -27v-32q0 -12 -7.5 -16.5t-15.5 5.5l-272 283q-18 23 -19 39z" />
<glyph unicode="&#x203a;" horiz-adv-x="600" d="M143 197v32q0 14 11 27l256 266l-256 266q-11 13 -11 27v33q0 12 6.5 16t16.5 -6l272 -283q18 -23 19 -38v-29q0 -16 -19 -39l-272 -283q-10 -10 -16.5 -6t-6.5 17z" />
<glyph unicode="&#x205f;" horiz-adv-x="446" />
<glyph unicode="&#x20ac;" horiz-adv-x="1058" d="M82 522v25q0 16 18 16h133v189h-133q-18 0 -18 16v25q0 16 18 16h133v235q0 127 75 200t200 73h133q125 0 199.5 -73t74.5 -200v-59q0 -18 -16 -18h-29q-16 0 -16 18v57q0 104 -55.5 161t-157.5 57h-133q-102 0 -157.5 -56.5t-55.5 -161.5v-233h360q18 0 19 -16v-25 q0 -16 -19 -16h-360v-189h360q18 0 19 -16v-25q0 -16 -19 -16h-360v-232q0 -104 55.5 -160.5t157.5 -56.5h133q102 0 157.5 56.5t55.5 160.5v58q0 18 16 18h29q16 0 16 -18v-60q0 -127 -74.5 -199.5t-199.5 -72.5h-133q-125 0 -200 72.5t-75 199.5v234h-133q-18 0 -18 16z " />
<glyph unicode="&#x2122;" horiz-adv-x="1212" d="M143 1284v16q0 16 19 17h336q18 0 18 -17v-16q0 -16 -18 -16h-142v-434q0 -18 -16 -19h-18q-17 1 -17 19v434h-143q-18 0 -19 16zM616 834v466q0 16 19 17h20q12 0 21 -12l164 -304h8l162 304q6 12 18 12h23q18 0 18 -17v-466q0 -18 -16 -19h-19q-16 0 -16 19v380h-8 l-138 -262q-6 -16 -18 -16h-18q-14 0 -23 16l-137 262h-8v-380q0 -18 -17 -19h-18q-16 0 -17 19z" />
<glyph unicode="&#x25fc;" horiz-adv-x="1044" d="M0 0v1044h1044v-1044h-1044z" />
</font>
</defs>
</svg>
