<?xml version="1.0" standalone="no"?>
<!DOCTYPE svg PUBLIC "-//W3C//DTD SVG 1.1//EN" "http://www.w3.org/Graphics/SVG/1.1/DTD/svg11.dtd" >
<svg xmlns="http://www.w3.org/2000/svg">
<metadata></metadata>
<defs>
<font id="rajdhaniregular" horiz-adv-x="1038" >
<font-face units-per-em="2048" ascent="1536" descent="-512" />
<missing-glyph horiz-adv-x="546" />
<glyph horiz-adv-x="0" />
<glyph horiz-adv-x="682" />
<glyph horiz-adv-x="0" />
<glyph horiz-adv-x="0" />
<glyph unicode="&#xd;" horiz-adv-x="681" />
<glyph unicode=" "  horiz-adv-x="546" />
<glyph unicode="&#x09;" horiz-adv-x="546" />
<glyph unicode="&#xa0;" horiz-adv-x="546" />
<glyph unicode="!" horiz-adv-x="485" d="M184 1092v200q0 25 21 25h76q23 0 22 -25v-200q0 -160 -10 -376t-14.5 -253t-20.5 -37h-31q-16 0 -22 27q-4 41 -12.5 259t-8.5 380zM188 25v243q0 23 23 23h65q21 0 21 -23v-243q0 -25 -21 -25h-65q-23 0 -23 25z" />
<glyph unicode="&#x22;" horiz-adv-x="675" d="M129 1292q0 25 23 25h61q25 0 20 -25l-22 -374q0 -27 -25 -27h-10q-25 0 -24 27zM442 1292q-4 25 23 25h59q23 0 23 -25l-23 -374q-1 -27 -24 -27h-11q-25 0 -24 27z" />
<glyph unicode="#" horiz-adv-x="1386" d="M113 362v46q0 23 22 22h211l127 457h-201q-25 0 -24 22v45q0 23 24 23h226l88 313q6 27 30 27h39q29 0 21 -33l-86 -307h387l88 313q8 27 33 27h37q29 0 20 -33l-86 -307h182q23 0 23 -23v-45q0 -23 -23 -22h-207l-129 -457h199q25 0 25 -22v-46q0 -23 -25 -22h-223 l-88 -313q-6 -27 -29 -27h-45q-23 0 -14 33l86 307h-389l-88 -313q-6 -27 -29 -27h-45q-23 0 -14 33l86 307h-187q-23 0 -22 22zM436 430h389l127 457h-387z" />
<glyph unicode="$" horiz-adv-x="1032" d="M141 291v63q0 23 23 23h59q20 0 21 -23v-57q0 -205 198 -205h148q199 0 198 207v121q0 109 -54 151.5t-163 44.5l-129 2q-143 4 -222 65.5t-79 217.5v129q0 133 78 212t209 79h66v176q0 25 22 25h47q23 0 23 -25v-176h18q129 0 206 -79t77 -212v-57q0 -25 -21 -25h-59 q-23 0 -23 25v49q0 205 -198 205h-144q-199 0 -198 -209v-119q0 -102 52 -144t161 -44h147q133 -4 210 -67.5t77 -217.5v-135q0 -135 -78 -213t-209 -78h-18v-176q0 -25 -23 -25h-47q-23 0 -22 25v176h-66q-131 0 -209 79t-78 212z" />
<glyph unicode="%" horiz-adv-x="1468" d="M102 963v122q0 240 236 240h51q233 0 234 -240v-122q0 -244 -234 -244h-51q-236 0 -236 244zM188 965q0 -92 34 -131t122 -39h37q88 0 122 38.5t34 131.5v116q0 92 -34 130t-122 38h-37q-88 0 -122 -37.5t-34 -130.5v-116zM419.5 33q12.5 33 271.5 627.5t274 629.5 q14 27 32 27h39q29 0 13 -31l-545 -1259q-13 -27 -33 -27h-39q-25 0 -12.5 33zM846 242v123q-1 241 235 241h52q121 0 177 -59.5t56 -181.5v-123q0 -242 -233 -242h-52q-236 0 -235 242zM932 246q0 -92 34.5 -131t123.5 -39h36q88 0 122 39t34 131v114q0 94 -34 132t-122 38 h-36q-90 0 -124 -37.5t-34 -132.5v-114z" />
<glyph unicode="&#x26;" horiz-adv-x="1222" d="M145 285v174q0 102 53.5 178t163.5 80q-94 115 -94 241v74q0 133 79 209t212 76h49q133 0 211 -76t78 -209v-94q0 -25 -23 -25h-59q-23 0 -22 25v92q0 197 -189 197h-39q-94 0 -143 -50.5t-49 -146.5v-72q0 -63 19.5 -108t68.5 -100l129 -148h489q25 0 25 -22v-50 q0 -23 -25 -22h-411l424 -490q12 -18 -7 -18h-77q-20 0 -35 16l-121 138q-57 -154 -254 -154h-164q-133 0 -211 76t-78 209zM248 289q-1 -197 194 -197h156q160 0 184 144l-364 417q-170 -10 -170 -200v-164z" />
<glyph unicode="'" horiz-adv-x="380" d="M137 1280q0 23 23 23h59q27 0 23 -23l-21 -350q-8 -23 -24 -23h-13q-25 0 -24 25z" />
<glyph unicode="(" horiz-adv-x="579" d="M115 106v895q0 150 80.5 233t218.5 83h8q20 -1 20 -19v-45q0 -20 -22 -20h-6q-98 0 -151.5 -58.5t-53.5 -166.5v-908q0 -109 53 -167t152 -58h6q23 0 22 -20v-45q0 -18 -22 -19h-6q-137 0 -218 83t-81 232z" />
<glyph unicode=")" horiz-adv-x="579" d="M115 -145q0 20 24 20h6q98 0 151.5 58.5t53.5 166.5v908q0 109 -53 167t-152 58h-6q-25 0 -24 20v45q0 18 24 19h6q135 0 216 -83t81 -233v-895q0 -150 -80.5 -232.5t-216.5 -82.5h-6q-24 1 -24 19v45z" />
<glyph unicode="*" horiz-adv-x="831" d="M139 1100l17 43q4 20 26 12q154 -41 234 -121q-45 136 -45 230v30q0 23 22 23h45q23 0 23 -23v-30q0 -139 -45 -230q117 94 235 123q20 8 27 -14l14 -43q8 -20 -16 -29l-31 -8q-133 -43 -229 -29q113 -80 170 -157l20 -27q10 -16 -6 -31l-37 -24q-18 -14 -31 4l-18 26 q-82 111 -98 209q-53 -150 -99 -209l-18 -28q-12 -16 -31 -4l-37 26q-18 10 -4 33q102 135 189 182q-158 0 -262 39q-20 6 -15 27z" />
<glyph unicode="+" horiz-adv-x="1071" d="M143 635v45q0 23 25 22h319v324q0 25 25 25h47q25 0 25 -25v-324h319q25 0 25 -22v-45q0 -23 -25 -23h-319v-323q0 -25 -25 -25h-47q-25 0 -25 25v323h-319q-25 0 -25 23z" />
<glyph unicode="," horiz-adv-x="391" d="M137 -190v458q0 23 23 23h71q21 0 21 -23v-159q0 -39 -23 -117l-59 -187q-2 -14 -17.5 -14t-15.5 19z" />
<glyph unicode="-" horiz-adv-x="638" d="M82 633v45q0 23 24 22h426q25 0 25 -22v-45q0 -23 -25 -23h-426q-25 0 -24 23z" />
<glyph unicode="." horiz-adv-x="391" d="M137 25v243q0 23 23 23h71q21 0 21 -23v-243q0 -25 -21 -25h-71q-23 0 -23 25z" />
<glyph unicode="/" horiz-adv-x="811" d="M126.5 24.5q10.5 24.5 223.5 624.5t230 641q8 27 32 27h56q27 0 16 -31l-448 -1259q-10 -27 -33 -27h-56q-31 0 -20.5 24.5z" />
<glyph unicode="0" horiz-adv-x="1052" d="M135 291v735q0 135 78 213t211 78h205q133 0 209.5 -78t76.5 -213v-735q0 -135 -76.5 -213t-209.5 -78h-205q-133 0 -211 78t-78 213zM240 295q0 -98 49 -150.5t143 -52.5h189q94 0 143 52.5t49 150.5v727q0 98 -49 150.5t-143 52.5h-189q-94 0 -143 -52.5t-49 -150.5 v-727z" />
<glyph unicode="1" horiz-adv-x="649" d="M74 1069v45q0 27 24 43l258 146q20 14 43 14h54q23 0 22 -25v-1267q0 -25 -22 -25h-60q-20 0 -20 25v1181l-264 -149q-35 -23 -35 12z" />
<glyph unicode="2" horiz-adv-x="978" d="M115 938v94q0 133 77.5 209t210.5 76h166q133 0 210 -75t77 -210v-86q0 -160 -129 -258l-408 -313q-86 -66 -86 -162v-119h607q23 0 22 -22v-49q0 -23 -22 -23h-693q-24 0 -24 23v180q0 143 123 235l403 307q104 80 105 205v80q0 197 -195 197h-147q-193 0 -193 -197v-92 q0 -25 -22 -25h-60q-23 0 -22 25z" />
<glyph unicode="3" horiz-adv-x="1015" d="M129 285v92q0 25 23 24h59q20 0 20 -24v-90q0 -197 195 -197h158q195 0 194 197v135q0 197 -194 196h-123q-23 0 -23 23v45q0 23 23 23h123q195 0 194 194v127q0 197 -194 197h-158q-195 0 -195 -197v-74q0 -23 -20 -22h-59q-23 0 -23 22v76q0 133 78 209t211 76h174 q133 0 211 -76t78 -209v-131q0 -188 -170 -237q170 -47 170 -240v-139q0 -133 -78 -209t-211 -76h-174q-133 0 -211 76t-78 209z" />
<glyph unicode="4" horiz-adv-x="1064" d="M94 297v37q0 18 15 47l536 905q18 31 49 31h97q29 0 28 -31v-926h154q23 0 22 -20v-49q0 -23 -22 -23h-154v-243q1 -25 -22 -25h-56q-23 0 -22 25v243h-594q-31 0 -31 29zM203 360h516v875z" />
<glyph unicode="5" horiz-adv-x="987" d="M133 291v71q0 25 21 25h59q23 0 23 -25v-69q0 -96 49 -149.5t143 -53.5h147q94 0 144.5 52.5t50.5 150.5v246q0 202 -197 202h-176q-49 0 -81.5 -16t-43.5 -37q-27 -51 -49 -51h-65q-20 0 -21 22v633q0 25 21 25h665q25 0 25 -23v-51q0 -23 -25 -22h-583v-492 q37 100 176 100h172q133 0 208.5 -73.5t75.5 -208.5v-256q0 -135 -77.5 -213t-210.5 -78h-164q-133 0 -210 78t-77 213z" />
<glyph unicode="6" horiz-adv-x="1017" d="M119 291v735q0 135 77.5 213t211.5 78h389q23 0 22 -23v-49q0 -20 -22 -20h-381q-94 0 -143.5 -52.5t-49.5 -150.5v-238h375q133 0 211 -77.5t78 -210.5v-205q0 -135 -78 -213t-211 -78h-190q-133 0 -211 78t-78 213zM223 295q0 -98 49.5 -150.5t143.5 -52.5h174 q94 0 143 52.5t49 150.5v197q0 96 -49 148t-143 52h-367v-397z" />
<glyph unicode="7" horiz-adv-x="778" d="M33 1243v51q0 23 22 23h660q23 0 22 -23v-51q0 -20 -10 -47l-440 -1173q-8 -23 -37 -23h-57q-29 0 -15 31l449 1192h-572q-23 0 -22 20z" />
<glyph unicode="8" horiz-adv-x="1062" d="M135 283v135q0 186 150 246q-150 59 -150 243v127q0 133 78 208t211 75h215q133 0 210 -75t77 -208v-127q0 -188 -148 -243q147 -57 148 -246v-135q0 -133 -77 -208t-210 -75h-215q-133 0 -211 75t-78 208zM240 289q-1 -197 192 -197h199q195 0 194 197v133 q0 197 -194 196h-199q-193 0 -192 -196v-133zM240 905q-1 -198 192 -198h199q94 0 144 51t50 147v123q0 197 -194 197h-199q-193 0 -192 -197v-123z" />
<glyph unicode="9" horiz-adv-x="1017" d="M115 819v207q0 135 77.5 213t210.5 78h191q133 0 211 -78t78 -213v-735q0 -135 -78 -213t-211 -78h-391q-25 0 -25 23v49q0 20 25 20h383q94 0 143 52.5t49 150.5v233h-375q-133 0 -210.5 78t-77.5 213zM219 823q0 -98 49.5 -150t143.5 -52h368v401q0 98 -50 150.5 t-144 52.5h-174q-94 0 -143.5 -52.5t-49.5 -150.5v-199z" />
<glyph unicode=":" horiz-adv-x="391" d="M137 25v243q0 23 23 23h71q21 0 21 -23v-243q0 -25 -21 -25h-71q-23 0 -23 25zM137 776v246q0 23 23 22h71q21 1 21 -22v-246q0 -23 -21 -22h-71q-23 0 -23 22z" />
<glyph unicode=";" horiz-adv-x="391" d="M137 -190v458q0 23 23 23h71q21 0 21 -23v-159q0 -39 -23 -117l-59 -187q-2 -14 -17.5 -14t-15.5 19zM137 776v246q0 23 23 22h71q21 1 21 -22v-246q0 -23 -21 -22h-71q-23 0 -23 22z" />
<glyph unicode="&#x3c;" horiz-adv-x="1050" d="M133 633v55q0 25 27 35l729 276q29 13 29 -16v-49q0 -25 -19 -29l-676 -246l676 -243q18 -4 19 -29v-51q0 -25 -29 -17l-729 279q-27 8 -27 35z" />
<glyph unicode="=" horiz-adv-x="1087" d="M152 453v43q-1 22 24 22h735q25 0 25 -22v-43q0 -23 -25 -23h-735q-25 0 -24 23zM152 819v43q-1 23 24 23h735q25 0 25 -23v-43q0 -23 -25 -22h-735q-25 0 -24 22z" />
<glyph unicode="&#x3e;" horiz-adv-x="1087" d="M152 336v51q0 23 20 29l674 243l-674 246q-20 4 -20 29v49q0 29 28 16l731 -276q25 -10 25 -35v-55q0 -27 -25 -35l-731 -279q-29 -8 -28 17z" />
<glyph unicode="?" horiz-adv-x="968" d="M145 942v88q0 133 78 209t211 76h101q133 0 210.5 -76t77.5 -209v-63q0 -111 -98 -191l-94 -80q-55 -45 -68.5 -78t-13.5 -94v-73q0 -25 -21 -25h-57q-23 0 -22 25v67q0 84 23.5 130t94.5 108l74 63q80 68 80 152v57q0 197 -195 197h-84q-193 0 -192 -197v-86 q0 -25 -23 -24h-59q-23 0 -23 24zM440 25v243q0 23 21 23h74q20 0 20 -23v-243q0 -25 -20 -25h-74q-20 0 -21 25z" />
<glyph unicode="@" horiz-adv-x="1542" d="M170 395v324q0 236 150.5 376t355.5 140h397q137 0 220 -82t83 -217v-490q0 -125 -75.5 -200.5t-198.5 -75.5h-62q-31 0 -52 19.5t-21 50.5v41h-9q-55 -106 -219 -107q-125 0 -199.5 77t-74.5 210v190q0 135 75.5 213t204.5 78h291q23 0 23 -24v-652q0 -18 22 -18h19 q94 0 145 53t51 152v479q0 106 -60 166.5t-165 60.5h-395q-176 0 -301 -122t-125 -320v-318q0 -199 126 -320.5t304 -121.5h375q23 0 22 -20v-33q1 -23 -22 -23h-373q-207 0 -359.5 138.5t-152.5 375.5zM561 461q0 -98 49 -150.5t144 -52.5h2q98 0 154.5 53.5t56.5 149.5 v377q0 18 -21 18h-192q-94 0 -143.5 -52t-49.5 -151v-192z" />
<glyph unicode="A" horiz-adv-x="1091" d="M61 25l408 1267q6 25 29 25h96q20 0 29 -25l407 -1267q1 -6 1 -10q0 -15 -15 -15h-66q-20 0 -26 25l-111 327h-537l-110 -327q-9 -25 -27 -25h-63q-17 0 -17 14q0 5 2 11zM305 444h481l-237 760h-8z" />
<glyph unicode="B" horiz-adv-x="1118" d="M174 25v1267q0 25 21 25h477q133 0 211 -76t78 -209v-125q0 -186 -177 -239q76 -4 133.5 -70t57.5 -170v-143q0 -133 -78 -209t-211 -76h-491q-21 0 -21 25zM276 109q1 -19 21 -19h381q195 0 194 197v141q0 195 -213 195h-362q-20 0 -21 -17v-497zM276 731q1 -18 21 -18 h360q96 0 148.5 51t52.5 145v121q0 197 -194 197h-367q-20 0 -21 -19v-477z" />
<glyph unicode="C" horiz-adv-x="1110" d="M154 291v735q0 135 76.5 213t209.5 78h258q133 0 210 -78t77 -213v-100q0 -25 -22 -25h-58q-23 0 -22 25v96q0 98 -50.5 150.5t-144.5 52.5h-239q-94 0 -143.5 -53.5t-49.5 -149.5v-727q0 -96 49 -149.5t144 -53.5h239q94 0 144.5 52.5t50.5 150.5v96q0 25 22 25h58 q23 0 22 -25v-100q0 -135 -77 -213t-210 -78h-258q-133 0 -209.5 78t-76.5 213z" />
<glyph unicode="D" horiz-adv-x="1140" d="M174 25v1267q0 25 21 25h505q133 0 210 -78t77 -213v-735q0 -135 -76.5 -213t-210.5 -78h-505q-21 0 -21 25zM276 111q1 -19 21 -19h393q94 0 144.5 52.5t50.5 150.5v727q0 98 -50.5 150.5t-144.5 52.5h-393q-20 0 -21 -19v-1095z" />
<glyph unicode="E" horiz-adv-x="985" d="M174 25v1267q0 25 21 25h632q25 0 25 -23v-47q0 -23 -25 -22h-530q-20 0 -21 -19v-471q0 -18 21 -18h473q23 0 23 -23v-47q0 -23 -23 -22h-473q-20 0 -21 -19v-495q0 -18 21 -19h530q25 0 25 -22v-47q0 -23 -25 -23h-632q-20 0 -21 25z" />
<glyph unicode="F" horiz-adv-x="940" d="M174 25v1267q0 25 21 25h630q25 0 25 -23v-47q0 -23 -25 -22h-528q-20 0 -21 -19v-497q0 -16 21 -17h473q23 0 23 -22v-49q0 -23 -23 -23h-473q-20 0 -21 -16v-557q1 -25 -22 -25h-59q-20 0 -21 25z" />
<glyph unicode="G" horiz-adv-x="1103" d="M154 291v735q0 135 76.5 213t209.5 78h224q133 0 210.5 -78t77.5 -213v-92q0 -25 -22 -25h-60q-23 0 -22 25v88q0 98 -49 150.5t-144 52.5h-206q-94 0 -143.5 -53.5t-49.5 -149.5v-727q0 -96 49 -149.5t144 -53.5h206q94 0 143.5 52.5t49.5 150.5v270q0 18 -19 19h-235 q-23 0 -23 22v47q0 23 23 23h319q39 0 39 -41v-344q0 -135 -77.5 -213t-210.5 -78h-224q-133 0 -209.5 78t-76.5 213z" />
<glyph unicode="H" horiz-adv-x="1167" d="M174 25v1267q0 25 21 25h59q23 0 22 -25v-559q0 -18 21 -18h573q20 0 21 18v559q0 25 20 25h60q23 0 22 -25v-1267q0 -25 -22 -25h-60q-20 0 -20 25v579q0 18 -21 19h-573q-20 0 -21 -19v-579q1 -25 -22 -25h-59q-20 0 -21 25z" />
<glyph unicode="I" horiz-adv-x="471" d="M184 25v1267q0 25 21 25h59q23 0 23 -25v-1267q0 -25 -23 -25h-59q-20 0 -21 25z" />
<glyph unicode="J" horiz-adv-x="1021" d="M78 291v170q0 23 22 22h60q23 0 22 -22v-166q0 -98 49.5 -150.5t143.5 -52.5h186q94 0 144.5 52.5t50.5 150.5v997q-1 25 22 25h58q23 0 22 -23v-1003q0 -135 -76.5 -213t-210.5 -78h-204q-133 0 -211 78t-78 213z" />
<glyph unicode="K" horiz-adv-x="1085" d="M174 25v1267q0 25 21 25h59q23 0 22 -25v-755h9q12 33 37 67l520 688q18 25 43 25h71q27 0 9 -25l-412 -551l475 -716q6 -9 6 -15q0 -10 -18 -10h-58q-31 0 -45 25l-426 639l-211 -254v-385q1 -25 -22 -25h-59q-20 0 -21 25z" />
<glyph unicode="L" horiz-adv-x="923" d="M174 25v1267q0 25 21 25h59q23 0 22 -25v-1177q0 -18 21 -19h549q25 0 24 -22v-51q1 -23 -24 -23h-651q-20 0 -21 25z" />
<glyph unicode="M" horiz-adv-x="1425" d="M174 25v1267q0 25 21 25h110q14 0 19 -12l385 -899h8l385 899q4 12 18 12h111q20 0 20 -25v-1267q0 -25 -20 -25h-60q-23 0 -22 25v1134h-8l-363 -850q-12 -23 -30 -22h-68q-20 0 -29 22l-368 852h-9v-1136q0 -25 -20 -25h-59q-20 0 -21 25z" />
<glyph unicode="N" horiz-adv-x="1185" d="M174 25v1267q0 25 21 25h55q18 0 24 -12l629 -1082h8v1069q0 25 23 25h57q23 0 23 -25v-1267q0 -25 -23 -25h-47q-18 0 -33 23l-626 1073h-9v-1071q1 -25 -22 -25h-59q-20 0 -21 25z" />
<glyph unicode="O" horiz-adv-x="1132" d="M154 291v735q0 135 76.5 213t209.5 78h252q133 0 210 -78t77 -213v-735q0 -135 -77 -213t-210 -78h-252q-133 0 -209.5 78t-76.5 213zM256 295q0 -96 49.5 -149.5t143.5 -53.5h233q94 0 144.5 52.5t50.5 150.5v727q0 98 -50.5 150.5t-144.5 52.5h-233q-94 0 -143.5 -53.5 t-49.5 -149.5v-727z" />
<glyph unicode="P" horiz-adv-x="1073" d="M174 25v1267q0 25 21 25h471q133 0 210.5 -78t77.5 -213v-240q0 -135 -77.5 -212.5t-210.5 -77.5h-369q-20 0 -21 -17v-454q1 -25 -22 -25h-59q-20 0 -21 25zM276 606q1 -16 21 -16h360q94 0 143.5 52t49.5 149v231q0 98 -49 150.5t-144 52.5h-360q-20 0 -21 -19v-600z " />
<glyph unicode="Q" horiz-adv-x="1138" d="M156 291v735q0 135 77.5 213t210.5 78h250q133 0 211 -78t78 -213v-735q0 -129 -72.5 -207t-197.5 -82l153 -248q15 -26 -14 -26h-57q-27 0 -41 24l-152 248h-158q-133 0 -210.5 78t-77.5 213zM260 295q0 -98 49.5 -150.5t143.5 -52.5h233q94 0 144.5 52.5t50.5 150.5 v727q0 98 -50.5 150.5t-144.5 52.5h-233q-94 0 -143.5 -52.5t-49.5 -150.5v-727z" />
<glyph unicode="R" horiz-adv-x="1093" d="M174 25v1267q0 25 21 25h467q133 0 210.5 -78t77.5 -213v-195q0 -115 -58 -188.5t-159 -93.5v-8l244 -516q4 -8 4 -13q0 -12 -18 -12h-64q-27 0 -37 25l-241 516h-324q-20 0 -21 -19v-497q1 -25 -22 -25h-59q-20 0 -21 25zM276 647q1 -18 21 -18h354q94 0 145.5 52 t51.5 148v193q0 96 -51.5 149.5t-145.5 53.5h-354q-20 0 -21 -19v-559z" />
<glyph unicode="S" horiz-adv-x="1150" d="M166 291v74q0 23 22 22h60q23 0 22 -22v-68q0 -205 199 -205h213q199 0 199 207v86q0 90 -74 141.5t-178.5 74t-210 47t-179 90t-73.5 175.5v113q0 135 78 213t211 78h237q133 0 211 -78t78 -213v-57q0 -23 -23 -23h-59q-23 0 -22 23v51q0 205 -199 205h-211 q-197 0 -197 -209v-103q0 -141 252 -190q104 -20 210 -47t179.5 -96.5t73.5 -188.5v-100q0 -135 -78 -213t-211 -78h-241q-133 0 -211 78t-78 213z" />
<glyph unicode="T" horiz-adv-x="860" d="M37 1247v47q0 23 24 23h738q25 0 24 -23v-47q0 -23 -24 -22h-297q-20 0 -21 -19v-1181q0 -25 -20 -25h-60q-23 0 -22 25v1181q0 18 -21 19h-297q-25 0 -24 22z" />
<glyph unicode="U" horiz-adv-x="1130" d="M164 291v1001q0 25 20 25h60q23 0 22 -25v-997q0 -96 49.5 -149.5t143.5 -53.5h211q94 0 144 52.5t50 150.5v997q0 25 23 25h57q23 0 23 -23v-1003q0 -135 -77 -213t-210 -78h-229q-133 0 -210 78t-77 213z" />
<glyph unicode="V" horiz-adv-x="1024" d="M57 1292q-2 6 -2 10q0 15 21 15h63q20 0 27 -25l342 -1165h8l342 1165q6 25 27 25h63q20 0 20 -16q0 -4 -1 -9l-381 -1267q-7 -25 -27 -25h-94q-20 0 -27 25z" />
<glyph unicode="W" horiz-adv-x="1626" d="M66 1292q-1 5 -1 8q0 17 21 17h68q23 0 26 -25l244 -1175h10l311 1177q4 23 27 23h78q25 0 29 -23l313 -1177h10l242 1175q4 25 29 25h69q20 0 20 -16q0 -4 -1 -9l-281 -1267q-4 -25 -27 -25h-104q-23 0 -29 25l-303 1155h-8l-305 -1155q-7 -25 -27 -25h-102 q-23 0 -29 25z" />
<glyph unicode="X" horiz-adv-x="1032" d="M72 25l374 669l-354 598q-6 10 -1 17.5t15 7.5h64q27 0 37 -25l307 -526h8l303 526q14 25 35 25h68q27 0 14 -25l-354 -596l373 -671q5 -9 5 -14q0 -11 -18 -11h-69q-18 0 -31 20l-328 594h-8l-328 -594q-12 -20 -30 -20h-70q-16 0 -16 11q0 6 4 14z" />
<glyph unicode="Y" horiz-adv-x="1009" d="M55 1292q-4 8 -4 13q0 12 19 12h73q18 0 29 -25l328 -669h10l326 669q10 25 28 25h76q17 0 17 -13q0 -5 -3 -12l-399 -794v-473q0 -25 -20 -25h-60q-23 0 -22 25v473z" />
<glyph unicode="Z" horiz-adv-x="987" d="M86 23v53q0 25 8 35l670 1101v9h-631q-25 0 -24 22v51q0 23 24 23h723q25 0 25 -23v-67q0 -18 -11 -35l-663 -1088v-8h670q25 0 24 -20v-53q0 -23 -24 -23h-768q-23 0 -23 23z" />
<glyph unicode="[" horiz-adv-x="587" d="M131 -182v1474q0 25 21 25h272q23 0 22 -23v-37q0 -23 -22 -22h-182q-18 0 -19 -18v-1323q0 -18 19 -19h182q23 0 22 -22v-37q1 -23 -22 -23h-272q-20 0 -21 25z" />
<glyph unicode="\" horiz-adv-x="811" d="M129 1286q-15 31 14 31h58q20 0 32 -31q33 -72 451 -1257q12 -29 -20 -29h-54q-23 0 -32 27z" />
<glyph unicode="]" horiz-adv-x="587" d="M123 -147q0 23 24 22h181q20 0 20 19v1323q0 18 -20 18h-181q-25 0 -24 22v37q0 23 24 23h271q23 0 22 -25v-1474q0 -25 -22 -25h-271q-24 0 -24 23v37z" />
<glyph unicode="^" horiz-adv-x="952" d="M118 753.5q-5 8.5 3 20.5l268 512q16 31 49 31h76q35 0 49 -31l268 -512q8 -12 3 -20.5t-19 -8.5h-49q-23 0 -35 25l-256 483l-254 -483q-17 -25 -35 -25h-49q-14 0 -19 8.5z" />
<glyph unicode="_" horiz-adv-x="761" d="M0 -150q0 20 25 21h712q25 0 25 -21v-30q0 -23 -25 -23h-712q-25 0 -25 23v30z" />
<glyph unicode="`" horiz-adv-x="550" d="M137 1432.5q4 7.5 15 7.5h92q27 0 37 -23l129 -217q12 -24 -11 -24h-41q-20 0 -32 18l-185 223q-8 8 -4 15.5z" />
<glyph unicode="a" horiz-adv-x="1028" d="M133 291v463q0 135 77 212.5t210 77.5h434q20 0 20 -24v-995q0 -25 -20 -25h-59q-23 0 -23 25v81h-8q-53 -106 -213 -106h-131q-133 0 -210 78t-77 213zM236 295q0 -96 49 -149.5t143 -53.5h133q98 0 154.5 52.5t56.5 148.5v641q0 18 -20 18h-324q-94 0 -143 -53 t-49 -149v-455z" />
<glyph unicode="b" horiz-adv-x="1032" d="M154 25v1390q0 25 20 25h59q23 0 23 -25v-461h8q57 106 213 107h135q133 0 210 -78t77 -211v-481q0 -135 -77 -213t-210 -78h-438q-20 0 -20 25zM256 111q0 -19 20 -19h326q94 0 144.5 52.5t50.5 150.5v473q0 96 -50.5 148.5t-144.5 52.5h-135q-98 0 -154.5 -52.5 t-56.5 -148.5v-657z" />
<glyph unicode="c" horiz-adv-x="806" d="M133 291v463q0 135 77 212.5t210 77.5h295q23 0 22 -22v-49q0 -20 -22 -21h-287q-94 0 -143 -53t-49 -149v-455q0 -96 49 -149.5t143 -53.5h287q22 1 22 -22v-47q0 -23 -22 -23h-295q-133 0 -210 78t-77 213z" />
<glyph unicode="d" horiz-adv-x="1032" d="M133 291v463q0 135 76 212.5t207 77.5h137q158 0 215 -106h8v477q0 25 21 25h59q23 0 23 -25v-1390q0 -25 -23 -25h-59q-20 0 -21 25v81h-8q-57 -106 -215 -106h-137q-131 0 -207 78t-76 213zM236 295q0 -96 49 -149.5t143 -53.5h137q98 0 154.5 52.5t56.5 148.5v459 q0 96 -56 148t-155 52h-137q-94 0 -143 -53t-49 -149v-455z" />
<glyph unicode="e" horiz-adv-x="1007" d="M133 291v463q0 135 77 212.5t210 77.5h176q133 0 211 -77.5t78 -212.5v-260q0 -25 -25 -25h-606q-18 0 -18 -18v-158q0 -96 49 -148.5t143 -52.5h420q23 0 22 -22v-47q1 -23 -22 -23h-428q-133 0 -210 78t-77 213zM236 569q0 -18 18 -18h510q18 0 18 18v183q0 96 -49 148 t-143 52h-162q-94 0 -143 -52t-49 -148v-183z" />
<glyph unicode="f" horiz-adv-x="620" d="M74 975v47q0 23 22 22h131q18 0 19 19v90q0 287 260 287h49q25 0 25 -23v-47q0 -23 -25 -22h-39q-92 0 -129 -49.5t-37 -149.5v-86q1 -19 19 -19h186q25 0 25 -22v-47q0 -23 -25 -23h-186q-18 0 -19 -18v-909q0 -25 -22 -25h-60q-23 0 -22 25v909q0 18 -19 18h-131 q-23 0 -22 23z" />
<glyph unicode="g" horiz-adv-x="1036" d="M141 348v406q0 135 77 212.5t210 77.5h434q23 0 23 -24v-1016q0 -135 -78 -213t-211 -78h-373q-23 0 -22 23v49q0 20 22 20h365q94 0 143 52.5t49 150.5v158h-8q-51 -107 -213 -107h-133q-131 0 -208 78t-77 211zM244 352q0 -96 50 -148t144 -52h131q98 0 154.5 52 t56.5 148v582q0 18 -18 18h-324q-94 0 -144 -52t-50 -150v-398z" />
<glyph unicode="h" d="M154 25v1390q0 25 20 25h59q23 0 23 -25v-477h8q57 106 213 106h135q131 0 207 -77.5t76 -212.5v-729q0 -25 -21 -25h-59q-23 0 -22 25v725q0 96 -49.5 149t-143.5 53h-133q-98 0 -154.5 -52t-56.5 -148v-727q0 -25 -23 -25h-59q-20 0 -20 25z" />
<glyph unicode="i" horiz-adv-x="430" d="M164 25v995q0 25 20 24h60q23 0 22 -24v-995q0 -25 -20 -25h-62q-20 0 -20 25zM164 1217v196q0 23 20 23h62q20 0 20 -23v-196q0 -25 -20 -25h-62q-20 0 -20 25z" />
<glyph unicode="j" horiz-adv-x="430" d="M-106 -215q0 20 24 20h43q203 0 203 211v1004q0 25 20 24h60q23 0 22 -24v-1016q0 -135 -78 -213t-211 -78h-59q-25 0 -24 23v49zM164 1217v196q0 23 20 23h62q20 0 20 -23v-196q0 -25 -20 -25h-62q-20 0 -20 25z" />
<glyph unicode="k" horiz-adv-x="882" d="M154 25v1390q0 25 20 25h59q23 0 23 -25v-1390q0 -25 -23 -25h-59q-20 0 -20 25zM393 522q-4 8 -4 16t4 17l307 469q12 20 41 20h64q12 0 16 -7t-4 -17l-313 -475v-8l350 -512q5 -7 5 -12q0 -3 -1 -5q-4 -8 -16 -8h-64q-31 0 -47 25z" />
<glyph unicode="l" horiz-adv-x="430" d="M164 25v1390q0 25 20 25h60q23 0 22 -25v-1390q1 -25 -22 -25h-60q-20 0 -20 25z" />
<glyph unicode="m" horiz-adv-x="1574" d="M154 25v995q0 24 18 24h2h59q23 0 23 -24v-82h8q59 106 217 106h84q180 0 250 -143q31 72 104.5 107.5t151.5 35.5h76q133 0 209 -77.5t76 -212.5v-729q0 -25 -23 -25h-59q-23 0 -23 25v725q0 98 -49 150t-143 52h-76q-98 0 -155.5 -56t-57.5 -153v-718q0 -25 -23 -25 h-59q-23 0 -23 25v725q0 98 -49 150t-143 52h-82q-98 0 -154.5 -52t-56.5 -148v-727q0 -25 -23 -25h-59q-20 0 -20 25z" />
<glyph unicode="n" d="M154 25v995q0 24 18 24h2h59q23 0 23 -24v-82h8q57 106 213 106h135q131 0 207 -77.5t76 -212.5v-729q0 -25 -21 -25h-59q-23 0 -22 25v725q0 96 -49.5 149t-143.5 53h-133q-98 0 -154.5 -52t-56.5 -148v-727q0 -25 -23 -25h-59q-20 0 -20 25z" />
<glyph unicode="o" horiz-adv-x="1015" d="M133 291v463q0 135 77 212.5t210 77.5h176q133 0 211 -77.5t78 -212.5v-463q0 -135 -78 -213t-211 -78h-176q-133 0 -210 78t-77 213zM236 293q0 -96 49 -148.5t143 -52.5h160q94 0 144 52.5t50 148.5v459q0 96 -50 148t-144 52h-160q-94 0 -143 -52t-49 -148v-459z" />
<glyph unicode="p" horiz-adv-x="1032" d="M154 -283v1303q0 24 18 24h2h59q23 0 23 -24v-82h8q57 106 213 106h139q131 0 207 -77.5t76 -212.5v-463q0 -135 -75.5 -213t-207.5 -78h-139q-156 0 -213 106h-8v-389q0 -22 -23 -22h-59q-20 0 -20 22zM256 293q0 -96 56.5 -148.5t154.5 -52.5h135q94 0 144.5 52.5 t50.5 150.5v455q0 98 -50.5 150t-144.5 52h-135q-98 0 -154.5 -52t-56.5 -148v-459z" />
<glyph unicode="q" horiz-adv-x="1028" d="M133 291v463q0 135 77 212.5t210 77.5h434q20 0 20 -24v-1303q0 -22 -18 -22h-2h-59q-23 0 -23 22v394h-8q-27 -49 -69 -76t-73.5 -31t-78.5 -4h-123q-133 0 -210 78t-77 213zM236 295q0 -96 49 -149.5t143 -53.5h129q100 0 157.5 57.5t57.5 153.5v631q0 18 -20 18h-324 q-94 0 -143 -53t-49 -149v-455z" />
<glyph unicode="r" horiz-adv-x="641" d="M154 25v995q0 24 18 24h2h59q23 0 23 -24v-86h8q23 43 80 76.5t141 33.5h80q23 0 23 -22v-49q0 -23 -23 -21h-96q-100 0 -156.5 -61.5t-56.5 -165.5v-700q0 -25 -23 -25h-59q-20 0 -20 25z" />
<glyph unicode="s" horiz-adv-x="882" d="M102 805q0 239 263 239h2h331q23 0 23 -22v-47q0 -20 -23 -21h-321q-84 0 -126 -36.5t-42 -86.5v-47q0 -57 31.5 -89.5t97.5 -55.5l256 -102q106 -35 142 -103.5t36 -191.5t-68.5 -182.5t-211.5 -59.5h-357q-23 0 -22 23v47q0 20 22 20h346q184 0 185 143v50 q0 133 -115 174l-256 98q-104 41 -148.5 96.5t-44.5 153.5z" />
<glyph unicode="t" horiz-adv-x="710" d="M51 973v49q0 23 23 22h125q18 0 18 19v166q0 24 21 24h2h59q23 0 23 -24v-166q0 -18 18 -19h244q23 0 22 -22v-49q0 -20 -22 -21h-244q-18 0 -18 -18v-645q0 -94 53 -145.5t149 -51.5h80q23 0 23 -22v-47q0 -23 -23 -23h-88q-135 0 -217 76t-82 209v649q0 18 -18 18h-125 q-23 0 -23 21z" />
<glyph unicode="u" d="M143 291v729q0 24 19 24h2h59q23 0 23 -24v-725q0 -96 49 -149.5t143 -53.5h133q98 0 154.5 52.5t56.5 148.5v727q0 24 21 24h2h59q20 0 21 -24v-995q0 -25 -21 -25h-59q-23 0 -23 25v81h-8q-53 -106 -213 -106h-135q-131 0 -207 78t-76 213z" />
<glyph unicode="v" horiz-adv-x="851" d="M41 1020q-2 6 -2 10q0 14 18 14h64q20 0 26 -24l275 -905h8l272 905q8 24 26 24h1h66q17 0 17 -12q0 -5 -3 -12l-309 -995q-6 -25 -29 -25h-90q-23 0 -31 25z" />
<glyph unicode="w" horiz-adv-x="1398" d="M43 1020q-1 5 -1 10q0 15 15 14h2h66q23 0 27 -24l241 -891h10l238 891q4 24 27 24h2h59q25 0 29 -24l233 -891h10l244 891q6 24 25 24h2h65q19 0 19 -14q0 -4 -2 -10l-285 -995q-6 -25 -29 -25h-82q-23 0 -28 25l-228 864h-10l-225 -864q-6 -25 -29 -25h-82 q-20 0 -26 25z" />
<glyph unicode="x" horiz-adv-x="845" d="M55 25l297 507l-282 488q-15 24 8 24h2h74q23 0 34 -24l232 -418h8l221 418q13 24 33 24h2h74q27 0 10 -24l-276 -483l301 -512q5 -9 5 -15q0 -10 -16 -10h-82q-16 0 -28 25l-244 438h-8l-244 -438q-15 -25 -35 -25h-75q-17 0 -17 10q0 6 6 15z" />
<glyph unicode="y" horiz-adv-x="940" d="M59 1020q-2 6 -2 11q0 13 17 13h2h63q20 0 27 -24l301 -879h8l301 879q6 24 25 24h2h61q20 0 20 -16q0 -3 -1 -8q-367 -1073 -382.5 -1110t-56.5 -100q-77 -121 -241 -121h-76q-23 0 -23 22v49q0 23 23 23h55q61 0 104.5 17.5t76 64.5t43.5 74q29 63 47 116h-39 q-23 0 -29 25z" />
<glyph unicode="z" horiz-adv-x="829" d="M70 23v28q0 23 12 39l536 854v8h-512q-23 0 -22 23v47q0 22 20 22h2h615q25 0 24 -22v-45q0 -18 -10 -35l-528 -842v-8h528q25 0 25 -22v-47q0 -23 -25 -23h-641q-24 0 -24 23z" />
<glyph unicode="{" horiz-adv-x="610" d="M74 528v50q0 23 24 22q63 0 95 36t32 120v270q0 139 58.5 215t173.5 76h10q23 0 22 -23v-39q0 -23 -22 -22h-8q-80 0 -112 -50t-32 -151v-282q0 -160 -110 -197q111 -33 110 -197v-280q0 -100 32 -150.5t112 -50.5h8q23 0 22 -22v-39q0 -23 -22 -23h-10q-115 0 -173.5 76 t-58.5 215v268q0 84 -31.5 120t-95.5 36q-25 0 -24 22z" />
<glyph unicode="|" horiz-adv-x="423" d="M168 25v1267q0 25 22 25h41q23 0 23 -25v-1267q0 -25 -23 -25h-41q-23 0 -22 25z" />
<glyph unicode="}" horiz-adv-x="610" d="M74 -147q0 23 24 22h8q78 0 110 50t32 151v280q0 162 110 197q-111 39 -110 197v282q0 100 -32 150.5t-110 50.5h-8q-25 0 -24 22v39q0 23 24 23h11q115 0 173 -76t58 -215v-270q0 -84 31.5 -120t95.5 -36q23 0 22 -22v-50q0 -23 -22 -22q-63 0 -95 -36t-32 -120v-268 q0 -139 -58.5 -215t-172.5 -76h-11q-25 0 -24 23v39z" />
<glyph unicode="~" horiz-adv-x="1071" d="M143 627v39q0 25 39 41q76 31 150 30.5t207 -31t188 -30.5t116.5 22.5t65.5 22.5q18 0 19 -23v-39q0 -23 -37 -38q-72 -31 -148.5 -31t-212 29.5t-187.5 29.5t-115.5 -22.5t-65.5 -22.5q-18 0 -19 23z" />
<glyph unicode="&#xa1;" horiz-adv-x="485" d="M184 25v200q0 162 8.5 380t12.5 259q6 27 22 27h31q16 0 20.5 -37t14.5 -253t10 -376v-200q0 -25 -22 -25h-76q-20 0 -21 25zM188 1049v243q0 25 23 25h65q20 0 21 -25v-243q-1 -23 -21 -23h-65q-23 0 -23 23z" />
<glyph unicode="&#xa2;" horiz-adv-x="847" d="M133 291v463q0 133 76 211.5t207 78.5h67v187q0 25 23 24h49q23 0 23 -24v-187h165q31 0 31 -22v-49q0 -20 -22 -21h-324q-94 0 -143 -53t-49 -149v-455q0 -96 49 -149.5t143 -53.5h324q23 0 22 -20v-49q0 -23 -22 -23h-174v-162q0 -22 -23 -22h-49q-23 0 -23 22v162h-67 q-131 0 -207 79t-76 212z" />
<glyph unicode="&#xa3;" horiz-adv-x="1081" d="M74 23v45q0 23 24 22h23q41 0 71.5 42t30.5 101v326h-125q-25 0 -24 23v47q0 20 24 20h125v383q0 133 78 209t211 76h133q133 0 210 -75t77 -210v-57q0 -25 -23 -25h-57q-23 0 -23 25v55q0 197 -194 197h-115q-195 0 -194 -197v-381h331q25 0 25 -20v-47q0 -23 -25 -23 h-331v-315q0 -100 -39 -133q-14 -12 -27 -13v-8h658q23 0 22 -22v-45q0 -23 -22 -23h-820q-25 0 -24 23z" />
<glyph unicode="&#xa5;" horiz-adv-x="1021" d="M61 1292q-10 25 13 25h78q16 0 26 -25l328 -676h8l328 676q10 25 26 25h78q27 0 12 -25l-284 -571h248q25 0 24 -23v-34q0 -25 -24 -25h-289l-70 -137v-72h359q25 0 24 -22v-35q0 -25 -24 -25h-361v-323q1 -25 -22 -25h-58q-23 0 -22 25v323h-361q-25 0 -24 25v35 q0 23 24 22h359v72l-70 137h-289q-25 0 -24 25v34q0 23 24 23h250z" />
<glyph unicode="&#xa6;" horiz-adv-x="411" d="M160 25v501q0 23 22 23h47q21 0 21 -23v-501q0 -25 -21 -25h-47q-23 0 -22 25zM160 791v501q0 25 22 25h47q21 0 21 -25v-501q0 -23 -21 -23h-47q-23 0 -22 23z" />
<glyph unicode="&#xa7;" horiz-adv-x="929" d="M123 707v354q0 256 266 256h330q25 0 24 -23v-49q0 -20 -24 -20h-328q-80 0 -123 -43t-43 -119t33 -113t121 -53l217 -39q211 -41 211 -235v-349q0 -274 -283 -274h-364q-23 0 -23 23v49q0 20 23 20h358q109 0 146.5 48t37.5 126t-37.5 111t-117.5 47l-217 39 q-207 43 -207 244zM221 711q0 -137 148 -166l196 -35q92 -16 142 -57v168q0 70 -36 104.5t-112 48.5l-199 37q-88 18 -139 63v-163z" />
<glyph unicode="&#xa8;" horiz-adv-x="706" d="M135 1200v217q0 23 23 23h57q20 0 21 -23v-217q0 -25 -21 -24h-57q-23 -1 -23 24zM471 1200v217q0 23 21 23h57q20 0 20 -23v-217q0 -25 -20 -24h-57q-21 -1 -21 24z" />
<glyph unicode="&#xa9;" horiz-adv-x="1480" d="M147 272v772q0 125 74 199t199 74h641q125 0 197.5 -74t72.5 -199v-772q0 -125 -72.5 -198.5t-197.5 -73.5h-641q-125 0 -199 73.5t-74 198.5zM231 283q0 -98 51.5 -151.5t147.5 -53.5h621q96 0 147 53t51 152v751q0 98 -51 151.5t-147 53.5h-621q-96 0 -147.5 -53 t-51.5 -152v-751zM461 481v342q0 233 248 234h55q248 -1 248 -234v-41q0 -20 -19 -20h-45q-20 0 -20 20v33q0 96 -38 131t-136 35h-37q-98 0 -136 -35t-38 -131v-326q0 -94 39 -129.5t135 -35.5h37q98 0 136 34.5t38 130.5v46q0 20 20 20h45q18 0 19 -20v-54 q0 -231 -248 -231h-55q-248 0 -248 231z" />
<glyph unicode="&#xab;" horiz-adv-x="882" d="M133 504v39q0 25 23 47l278 272q12 12 20.5 7t8.5 -19v-49q0 -18 -19 -35l-245 -244l245 -241q19 -19 19 -35v-49q0 -14 -8.5 -19.5t-20.5 6.5l-278 273q-23 23 -23 47zM422 504v39q0 25 22 47l279 272q12 12 19.5 7t7.5 -19v-49q0 -20 -17 -35l-246 -244l246 -241 q17 -17 17 -35v-49q0 -14 -7.5 -19.5t-19.5 6.5l-279 273q-23 23 -22 47z" />
<glyph unicode="&#xad;" horiz-adv-x="638" d="M82 633v45q0 23 24 22h426q25 0 25 -22v-45q0 -23 -25 -23h-426q-25 0 -24 23z" />
<glyph unicode="&#xae;" horiz-adv-x="899" d="M139 1034v201q0 98 58.5 156.5t154.5 58.5h195q96 0 154.5 -58.5t58.5 -156.5v-201q0 -98 -58.5 -156.5t-154.5 -58.5h-195q-96 0 -154.5 58.5t-58.5 156.5zM199 1040q0 -78 40.5 -120.5t116.5 -42.5h185q158 0 157 163v189q0 164 -157 164h-185q-76 0 -116.5 -43 t-40.5 -121v-189zM338 973v325q0 25 22 25h125q43 0 68 -24.5t25 -67.5v-53q0 -68 -52 -86l56 -117q12 -25 -11 -25h-20q-18 0 -23 15l-55 122h-78v-114q0 -23 -20 -23h-15q-22 0 -22 23zM395 1139h88q37 0 37 37v57q0 37 -37 37h-88v-131z" />
<glyph unicode="&#xaf;" horiz-adv-x="733" d="M135 1292v35q0 20 25 21h413q25 0 25 -21v-35q0 -22 -25 -22h-413q-25 0 -25 22z" />
<glyph unicode="&#xb0;" horiz-adv-x="610" d="M160 1147v199q0 96 100 96h86q47 0 75 -25.5t28 -70.5v-199q0 -47 -28 -73.5t-75 -26.5h-86q-100 0 -100 100zM227 1171q0 -37 13.5 -51t52.5 -14h24q39 0 51.5 13.5t12.5 51.5v142q0 39 -12.5 52t-51.5 13h-24q-39 0 -52.5 -13t-13.5 -52v-142z" />
<glyph unicode="&#xb1;" horiz-adv-x="1071" d="M143 289v43q0 22 25 22h735q25 0 25 -22v-43q0 -25 -25 -25h-735q-25 0 -25 25zM143 735v43q0 23 25 23h319v225q0 25 25 25h47q25 0 25 -25v-225h319q25 0 25 -23v-43q0 -23 -25 -22h-319v-224q0 -25 -25 -24h-47q-25 0 -25 24v224h-319q-25 0 -25 22z" />
<glyph unicode="&#xb4;" horiz-adv-x="550" d="M141 1200l129 217q12 23 37 23h92q10 0 13.5 -7.5t-2.5 -15.5l-185 -223q-16 -18 -35 -18h-38q-23 0 -11 24z" />
<glyph unicode="&#xb6;" horiz-adv-x="1050" d="M102 901v174q0 242 265 242h483q23 0 22 -23v-1269q0 -25 -22 -25h-47q-23 0 -23 25v1185q0 18 -20 19h-297q-20 0 -21 -19v-1185q0 -25 -20 -25h-49q-23 0 -23 25v634q-248 4 -248 242z" />
<glyph unicode="&#xb7;" horiz-adv-x="423" d="M154 530v244q0 25 22 25h72q20 0 20 -25v-244q0 -25 -20 -24h-72q-23 0 -22 24z" />
<glyph unicode="&#xb8;" horiz-adv-x="526" d="M137 -142.5q-10 27.5 15 52.5l114 131h90l-127 -135v-8q160 0 160 -125v-25q0 -123 -168 -123h-51q-23 0 -23 21v26q0 20 23 21h41q109 0 108 65v4q0 39 -23.5 53.5t-84.5 14.5h-27q-37 0 -47 27.5z" />
<glyph unicode="&#xbb;" horiz-adv-x="882" d="M133 197v49q0 18 17 35l245 241l-245 244q-17 15 -17 35v49q0 14 7 19t20 -7l278 -272q25 -25 25 -47v-39q0 -23 -25 -47l-278 -273q-12 -12 -19.5 -7t-7.5 20zM422 197v49q0 18 16 35l246 241l-246 244q-16 15 -16 35v49q0 14 7 19t17 -7l281 -272q23 -23 23 -47v-39 q0 -25 -23 -47l-281 -273q-10 -12 -17 -7t-7 20z" />
<glyph unicode="&#xbf;" horiz-adv-x="968" d="M145 285v63q0 111 99 191l92 79q55 45 69.5 78.5t14.5 94.5v73q0 25 20 25h58q23 0 22 -25v-67q0 -84 -23.5 -130t-95.5 -108l-73 -63q-80 -68 -80 -152v-57q0 -197 194 -197h84q193 0 193 197v86q0 25 22 24h60q23 0 22 -24v-88q0 -133 -77.5 -209t-210.5 -76h-101 q-133 0 -211 76t-78 209zM414 1047v243q0 25 22 25h72q20 0 20 -25v-243q0 -23 -20 -23h-72q-22 0 -22 23z" />
<glyph unicode="&#xc0;" horiz-adv-x="1089" d="M61 25l408 1267q6 25 29 25h96q20 0 29 -25l407 -1267q6 -25 -14 -25h-66q-20 0 -26 25l-111 327h-537l-110 -327q-9 -25 -27 -25h-63q-23 0 -15 25zM296 1706q5 6 15 6h90q25 0 37 -22l129 -217q12 -25 -8 -25h-43q-20 0 -33 18l-184 224q-8 10 -3 16zM305 444h481 l-237 760h-8z" />
<glyph unicode="&#xc1;" horiz-adv-x="1089" d="M61 25l408 1267q6 25 29 25h96q20 0 29 -25l407 -1267q6 -25 -14 -25h-66q-20 0 -26 25l-111 327h-537l-110 -327q-9 -25 -27 -25h-63q-23 0 -15 25zM305 444h481l-237 760h-8zM522 1473l129 217q12 22 37 22h92q10 0 14.5 -6t-3.5 -16l-185 -224q-12 -18 -33 -18h-41 q-23 0 -10 25z" />
<glyph unicode="&#xc2;" horiz-adv-x="1089" d="M61 25l408 1267q6 25 29 25h96q20 0 29 -25l407 -1267q6 -25 -14 -25h-66q-20 0 -26 25l-111 327h-537l-110 -327q-9 -25 -27 -25h-63q-23 0 -15 25zM305 444h481l-237 760h-8zM352 1470l131 224q12 18 39 18h45q29 0 41 -18l129 -224q15 -22 -8 -22h-49q-20 0 -25 12 l-110 199l-109 -199q-4 -12 -24 -12h-50q-25 0 -10 22z" />
<glyph unicode="&#xc3;" horiz-adv-x="1089" d="M61 25l408 1267q6 25 29 25h96q20 0 29 -25l407 -1267q6 -25 -14 -25h-66q-20 0 -26 25l-111 327h-537l-110 -327q-9 -25 -27 -25h-63q-23 0 -15 25zM305 444h481l-237 760h-8zM328 1597v80q0 18 16 19h29q18 0 18 -19v-67q0 -63 11.5 -86t42 -23t44 18.5t37 81t47 82 t82 19.5t84 -38t25.5 -120v-84q0 -20 -16 -20h-29q-18 0 -19 20v70q0 66 -11 88t-43 22t-43 -15t-32.5 -78.5t-49 -86t-85 -22.5t-83 37.5t-25.5 121.5z" />
<glyph unicode="&#xc4;" horiz-adv-x="1089" d="M61 25l408 1267q6 25 29 25h96q20 0 29 -25l407 -1267q6 -25 -14 -25h-66q-20 0 -26 25l-111 327h-537l-110 -327q-9 -25 -27 -25h-63q-23 0 -15 25zM305 444h481l-237 760h-8zM328 1473v217q0 23 22 22h58q20 0 20 -22v-217q0 -25 -20 -25h-58q-22 0 -22 25zM662 1473 v217q0 23 22 22h57q20 0 21 -22v-217q0 -25 -21 -25h-57q-22 0 -22 25z" />
<glyph unicode="&#xc5;" horiz-adv-x="1089" d="M61 25l408 1267q6 25 29 25h96q20 0 29 -25l407 -1267q6 -25 -14 -25h-66q-20 0 -26 25l-111 327h-537l-110 -327q-9 -25 -27 -25h-63q-23 0 -15 25zM305 444h481l-237 760h-8zM375 1573v63q0 150 147 150h39q72 0 112 -39t40 -111v-63q0 -72 -40 -111t-112 -39h-39 q-147 0 -147 150zM436 1583q0 -104 94 -104h23q96 0 96 104v43q0 102 -96 103h-23q-94 0 -94 -103v-43z" />
<glyph unicode="&#xc6;" horiz-adv-x="1583" d="M4 25l694 1267q14 25 37 25h692q23 0 23 -23v-47q0 -23 -23 -22h-532q-18 0 -18 -19v-471q0 -18 18 -18h475q23 0 23 -23v-47q0 -23 -23 -22h-475q-18 0 -18 -19v-495q0 -18 18 -19h532q23 0 23 -22v-47q0 -23 -23 -23h-632q-23 0 -23 25v327h-471l-182 -327 q-15 -25 -33 -25h-70q-20 0 -12 25zM348 449h424v757h-8z" />
<glyph unicode="&#xc7;" horiz-adv-x="1110" d="M154 291v735q0 135 76.5 213t209.5 78h258q133 0 210 -78t77 -213v-100q1 -25 -22 -25h-58q-23 0 -22 25v96q0 98 -50.5 150.5t-144.5 52.5h-239q-94 0 -143.5 -53.5t-49.5 -149.5v-727q0 -96 49 -149.5t144 -53.5h239q94 0 144.5 52.5t50.5 150.5v96q0 25 22 25h58 q23 0 22 -25v-100q0 -135 -77 -213t-210 -78h-41l-94 -98v-8q82 0 121 -29t39 -96v-25q0 -123 -168 -123h-51q-20 0 -21 23v24q0 20 21 21h41q59 0 83.5 14t24.5 51v4q0 39 -23.5 53.5t-84.5 14.5h-25q-37 0 -48 27.5t13 54.5l84 92h-129q-133 0 -209.5 78t-76.5 213z" />
<glyph unicode="&#xc8;" horiz-adv-x="985" d="M174 25v1267q0 25 21 25h632q25 0 25 -23v-47q0 -23 -25 -22h-530q-20 0 -21 -19v-471q0 -18 21 -18h473q23 0 23 -23v-47q0 -23 -23 -22h-473q-20 0 -21 -19v-495q0 -18 21 -19h530q25 0 25 -22v-47q0 -23 -25 -23h-632q-20 0 -21 25zM295 1690q-14 23 10 22h92 q25 0 37 -22l129 -217q12 -25 -8 -25h-43q-20 0 -33 18z" />
<glyph unicode="&#xc9;" horiz-adv-x="985" d="M174 25v1267q0 25 21 25h632q25 0 25 -23v-47q0 -23 -25 -22h-530q-20 0 -21 -19v-471q0 -18 21 -18h473q23 0 23 -23v-47q0 -23 -23 -22h-473q-20 0 -21 -19v-495q0 -18 21 -19h530q25 0 25 -22v-47q0 -23 -25 -23h-632q-20 0 -21 25zM465 1473l129 217q12 22 37 22h92 q10 0 14 -6t-4 -16l-184 -224q-12 -18 -33 -18h-41q-23 0 -10 25z" />
<glyph unicode="&#xca;" horiz-adv-x="985" d="M174 25v1267q0 25 21 25h632q25 0 25 -23v-47q0 -23 -25 -22h-530q-20 0 -21 -19v-471q0 -18 21 -18h473q23 0 23 -23v-47q0 -23 -23 -22h-473q-20 0 -21 -19v-495q0 -18 21 -19h530q25 0 25 -22v-47q0 -23 -25 -23h-632q-20 0 -21 25zM317 1470l132 224q12 18 40 18h43 q29 0 41 -18l132 -224q14 -22 -11 -22h-49q-20 0 -24 12l-109 199l-111 -199q-4 -12 -24 -12h-49q-25 0 -11 22z" />
<glyph unicode="&#xcb;" horiz-adv-x="985" d="M174 25v1267q0 25 21 25h632q25 0 25 -23v-47q0 -23 -25 -22h-530q-20 0 -21 -19v-471q0 -18 21 -18h473q23 0 23 -23v-47q0 -23 -23 -22h-473q-20 0 -21 -19v-495q0 -18 21 -19h530q25 0 25 -22v-47q0 -23 -25 -23h-632q-20 0 -21 25zM295 1473v217q0 23 20 22h58 q23 0 22 -22v-217q0 -25 -22 -25h-58q-20 0 -20 25zM629 1473v217q0 23 20 22h58q23 0 22 -22v-217q0 -25 -22 -25h-58q-20 0 -20 25z" />
<glyph unicode="&#xcc;" horiz-adv-x="471" d="M0 1690q-18 23 10 22h90q27 0 37 -22l129 -217q12 -25 -8 -25h-41q-20 0 -35 18zM184 25v1267q0 25 21 25h59q23 0 23 -25v-1267q0 -25 -23 -25h-59q-20 0 -21 25z" />
<glyph unicode="&#xcd;" horiz-adv-x="473" d="M184 25v1267q0 25 21 25h59q23 0 23 -25v-1267q0 -25 -23 -25h-59q-20 0 -21 25zM205 1473l129 217q10 22 37 22h92q10 0 14 -6t-4 -16l-184 -224q-12 -18 -33 -18h-41q-23 0 -10 25z" />
<glyph unicode="&#xce;" horiz-adv-x="468" d="M43 1470l129 224q12 18 41 18h45q27 0 39 -18l131 -224q15 -22 -10 -22h-49q-16 0 -25 12l-108 199l-111 -199q-4 -12 -25 -12h-47q-25 0 -10 22zM184 25v1267q0 25 21 25h59q23 0 23 -25v-1267q0 -25 -23 -25h-59q-20 0 -21 25z" />
<glyph unicode="&#xcf;" horiz-adv-x="471" d="M18 1473v217q0 23 21 22h57q23 0 23 -22v-217q0 -25 -23 -25h-57q-21 0 -21 25zM184 25v1267q0 25 21 25h59q23 0 23 -25v-1267q0 -25 -23 -25h-59q-20 0 -21 25zM352 1473v217q0 23 21 22h57q23 0 23 -22v-217q0 -25 -23 -25h-57q-21 0 -21 25z" />
<glyph unicode="&#xd0;" horiz-adv-x="1052" d="M51 645v41q0 23 23 23h86q20 0 20 18v565q0 25 21 25h506q133 0 209.5 -78t76.5 -213v-735q0 -135 -76.5 -213t-209.5 -78h-506q-20 0 -21 25v581q0 16 -20 17h-86q-23 0 -23 22zM283 111q0 -19 18 -19h395q94 0 144.5 52.5t50.5 150.5v727q0 98 -50 150.5t-145 52.5 h-395q-18 0 -18 -19v-479q0 -18 18 -18h303q23 0 23 -23v-41q0 -23 -23 -22h-303q-18 0 -18 -17v-495z" />
<glyph unicode="&#xd1;" horiz-adv-x="1185" d="M174 25v1267q0 25 21 25h55q18 0 24 -12l629 -1082h8v1069q0 25 23 25h57q23 0 23 -25v-1267q0 -25 -23 -25h-47q-18 0 -33 23l-626 1073h-9v-1071q1 -25 -22 -25h-59q-20 0 -21 25zM375 1597v80q0 18 18 19h29q16 0 16 -19v-67q0 -61 12.5 -85t42 -24t43 18.5t37 80 t48 82t82 20.5t84 -38t26.5 -120v-84q0 -20 -18 -20h-29q-16 0 -16 20v70q0 63 -12.5 86.5t-43 23.5t-42 -14t-19.5 -35.5t-9 -23.5t-2 -6.5t-4 -6.5q-22 -71 -48.5 -93.5t-84 -22.5t-84 37.5t-26.5 121.5z" />
<glyph unicode="&#xd2;" horiz-adv-x="1132" d="M154 291v735q0 135 76.5 213t209.5 78h252q133 0 210 -78t77 -213v-735q0 -135 -77 -213t-210 -78h-252q-133 0 -209.5 78t-76.5 213zM256 295q0 -96 49.5 -149.5t143.5 -53.5h233q94 0 144.5 52.5t50.5 150.5v727q0 98 -50.5 150.5t-144.5 52.5h-233q-94 0 -143.5 -53.5 t-49.5 -149.5v-727zM336 1690q-14 23 10 22h92q25 0 37 -22l129 -217q12 -25 -8 -25h-43q-20 0 -33 18z" />
<glyph unicode="&#xd3;" horiz-adv-x="1132" d="M154 291v735q0 135 76.5 213t209.5 78h252q133 0 210 -78t77 -213v-735q0 -135 -77 -213t-210 -78h-252q-133 0 -209.5 78t-76.5 213zM256 295q0 -96 49.5 -149.5t143.5 -53.5h233q94 0 144.5 52.5t50.5 150.5v727q0 98 -50.5 150.5t-144.5 52.5h-233q-94 0 -143.5 -53.5 t-49.5 -149.5v-727zM520 1473l129 217q10 22 37 22h92q25 0 10 -22l-184 -224q-12 -18 -35 -18h-41q-20 0 -8 25z" />
<glyph unicode="&#xd4;" horiz-adv-x="1132" d="M154 291v735q0 135 76.5 213t209.5 78h252q133 0 210 -78t77 -213v-735q0 -135 -77 -213t-210 -78h-252q-133 0 -209.5 78t-76.5 213zM256 295q0 -96 49.5 -149.5t143.5 -53.5h233q94 0 144.5 52.5t50.5 150.5v727q0 98 -50.5 150.5t-144.5 52.5h-233q-94 0 -143.5 -53.5 t-49.5 -149.5v-727zM375 1470l129 224q12 18 41 18h45q27 0 39 -18l131 -224q15 -22 -10 -22h-50q-20 0 -24 12l-109 199l-110 -199q-4 -12 -25 -12h-49q-23 0 -8 22z" />
<glyph unicode="&#xd5;" horiz-adv-x="1132" d="M154 291v735q0 135 76.5 213t209.5 78h252q133 0 210 -78t77 -213v-735q0 -135 -77 -213t-210 -78h-252q-133 0 -209.5 78t-76.5 213zM256 295q0 -96 49.5 -149.5t143.5 -53.5h233q94 0 144.5 52.5t50.5 150.5v727q0 98 -50.5 150.5t-144.5 52.5h-233q-94 0 -143.5 -53.5 t-49.5 -149.5v-727zM346 1597v80q0 18 19 19h28q16 0 17 -19v-67q0 -61 12 -85t43 -24t44 18.5t36.5 81t47 82t81 19.5t84 -38t26.5 -120v-84q0 -20 -18 -20h-29q-16 0 -16 20v70q0 63 -12.5 86.5t-43 23.5t-42 -15t-34 -78.5t-49 -86t-85 -22.5t-84 37.5t-25.5 121.5z" />
<glyph unicode="&#xd6;" horiz-adv-x="1132" d="M154 291v735q0 135 76.5 213t209.5 78h252q133 0 210 -78t77 -213v-735q0 -135 -77 -213t-210 -78h-252q-133 0 -209.5 78t-76.5 213zM256 295q0 -96 49.5 -149.5t143.5 -53.5h233q94 0 144.5 52.5t50.5 150.5v727q0 98 -50.5 150.5t-144.5 52.5h-233q-94 0 -143.5 -53.5 t-49.5 -149.5v-727zM348 1473v217q0 23 23 22h55q23 0 23 -22v-217q0 -25 -23 -25h-55q-23 0 -23 25zM682 1473v217q0 23 23 22h57q20 0 20 -22v-217q0 -25 -20 -25h-57q-23 0 -23 25z" />
<glyph unicode="&#xd7;" horiz-adv-x="1009" d="M203 391q-18 16 0 35l231 231l-231 232q-16 18 0 35l35 34q16 16 32 0l234 -231l231 231q18 16 35 0l33 -34q18 -16 0 -35l-232 -232l234 -231q16 -18 0 -35l-35 -35q-16 -16 -35 0l-231 234l-234 -234q-16 -16 -32 0z" />
<glyph unicode="&#xd8;" horiz-adv-x="1144" d="M100 68l76 106q-18 51 -18 117v735q0 135 76.5 213t209.5 78h256q152 0 228 -98l53 73q14 20 35 8l24 -16q16 -14 2 -35l-73 -104q18 -53 18 -119v-735q0 -135 -78 -213t-209 -78h-256q-152 0 -227 98l-55 -75q-16 -18 -35 -7l-25 17q-16 14 -2 35zM260 289l602 839 q-41 96 -172 97h-235q-94 0 -144.5 -52.5t-50.5 -150.5v-733zM281 188q45 -96 174 -96h235q94 0 143.5 52.5t49.5 150.5v731z" />
<glyph unicode="&#xd9;" horiz-adv-x="1130" d="M164 291v1001q0 25 20 25h60q23 0 22 -25v-997q0 -96 49.5 -149.5t143.5 -53.5h211q94 0 144 52.5t50 150.5v997q0 25 23 25h57q23 0 23 -23v-1003q0 -135 -77 -213t-210 -78h-229q-133 0 -210 78t-77 213zM344 1706q4 6 14 6h93q25 0 36 -22l129 -217q13 -25 -10 -25 h-41q-20 0 -33 18l-184 224q-8 10 -4 16z" />
<glyph unicode="&#xda;" horiz-adv-x="1130" d="M164 291v1001q0 25 20 25h60q23 0 22 -25v-997q0 -96 49.5 -149.5t143.5 -53.5h211q94 0 144 52.5t50 150.5v997q0 25 23 25h57q23 0 23 -23v-1003q0 -135 -77 -213t-210 -78h-229q-133 0 -210 78t-77 213zM522 1473l129 217q12 22 37 22h90q10 0 15.5 -6t-2.5 -16 l-185 -224q-16 -18 -35 -18h-41q-20 0 -8 25z" />
<glyph unicode="&#xdb;" horiz-adv-x="1130" d="M164 291v1001q0 25 20 25h60q23 0 22 -25v-997q0 -96 49.5 -149.5t143.5 -53.5h211q94 0 144 52.5t50 150.5v997q0 25 23 25h57q23 0 23 -23v-1003q0 -135 -77 -213t-210 -78h-229q-133 0 -210 78t-77 213zM373 1470l131 224q12 18 41 18h43q29 0 41 -18l131 -224 q15 -22 -10 -22h-50q-20 0 -24 12l-111 199l-108 -199q-4 -12 -25 -12h-49q-25 0 -10 22z" />
<glyph unicode="&#xdc;" horiz-adv-x="1130" d="M164 291v1001q0 25 20 25h60q23 0 22 -25v-997q0 -96 49.5 -149.5t143.5 -53.5h211q94 0 144 52.5t50 150.5v997q0 25 23 25h57q23 0 23 -23v-1003q0 -135 -77 -213t-210 -78h-229q-133 0 -210 78t-77 213zM348 1473v217q0 23 23 22h55q23 0 23 -22v-217q0 -25 -23 -25 h-55q-23 0 -23 25zM682 1473v217q0 23 23 22h57q20 0 20 -22v-217q0 -25 -20 -25h-57q-23 0 -23 25z" />
<glyph unicode="&#xdd;" horiz-adv-x="1009" d="M55 1292q-12 25 15 25h73q18 0 29 -25l328 -669h10l326 669q10 25 28 25h76q23 0 14 -25l-399 -794v-473q0 -25 -20 -25h-60q-23 0 -22 25v473zM465 1473l129 217q12 22 37 22h92q10 0 14 -6t-4 -16l-182 -224q-14 -18 -35 -18h-41q-23 0 -10 25z" />
<glyph unicode="&#xde;" horiz-adv-x="1026" d="M236 25v1267q0 25 22 25h59q23 0 23 -25v-229q0 -18 18 -19h238q133 0 210 -77.5t77 -212.5v-193q0 -133 -77 -211t-210 -78h-238q-18 0 -18 -18v-229q0 -25 -23 -25h-59q-23 0 -22 25zM340 383q0 -18 18 -18h228q94 0 144 52t50 148v185q0 98 -50 150t-144 52h-228 q-18 0 -18 -18v-551z" />
<glyph unicode="&#xdf;" horiz-adv-x="1105" d="M162 25v1001q0 135 76.5 213t210.5 78h206q133 0 210 -78t77 -213v-119q0 -174 -156 -241q80 -20 128.5 -89t48.5 -159v-131q0 -135 -77 -211t-210 -76h-193q-25 0 -24 23v47q0 20 24 20h183q94 0 144 52.5t50 150.5v125q0 92 -63.5 146t-159.5 54h-115q-23 0 -22 21v49 q-1 23 22 23h111q96 0 151.5 53t55.5 147v113q0 96 -50.5 148.5t-144.5 52.5h-186q-94 0 -144.5 -52.5t-50.5 -148.5v-999q0 -25 -20 -25h-60q-23 0 -22 25z" />
<glyph unicode="&#xe0;" horiz-adv-x="1028" d="M133 291v463q0 135 77 212.5t210 77.5h434q20 0 20 -24v-995q0 -25 -20 -25h-59q-23 0 -23 25v81h-8q-53 -106 -213 -106h-131q-133 0 -210 78t-77 213zM236 295q0 -96 49 -149.5t143 -53.5h133q98 0 154.5 52.5t56.5 148.5v641q0 18 -20 18h-324q-94 0 -143 -53 t-49 -149v-455zM337 1432.5q3 7.5 15 7.5h90q29 0 37 -23l131 -217q8 -24 -10 -24h-41q-18 0 -35 18l-182 223q-8 8 -5 15.5z" />
<glyph unicode="&#xe1;" horiz-adv-x="1028" d="M133 291v463q0 135 77 212.5t210 77.5h434q20 0 20 -24v-995q0 -25 -20 -25h-59q-23 0 -23 25v81h-8q-53 -106 -213 -106h-131q-133 0 -210 78t-77 213zM236 295q0 -96 49 -149.5t143 -53.5h133q98 0 154.5 52.5t56.5 148.5v641q0 18 -20 18h-324q-94 0 -143 -53 t-49 -149v-455zM494 1200l129 217q11 23 36 23h93q10 0 14 -7.5t-4 -15.5l-184 -223q-12 -18 -35 -18h-41q-20 0 -8 24z" />
<glyph unicode="&#xe2;" horiz-adv-x="1028" d="M133 291v463q0 135 77 212.5t210 77.5h434q20 0 20 -24v-995q0 -25 -20 -25h-59q-23 0 -23 25v81h-8q-53 -106 -213 -106h-131q-133 0 -210 78t-77 213zM236 295q0 -96 49 -149.5t143 -53.5h133q98 0 154.5 52.5t56.5 148.5v641q0 18 -20 18h-324q-94 0 -143 -53 t-49 -149v-455zM346 1198l129 223q12 18 41 19h45q27 0 39 -19l131 -223q15 -22 -10 -22h-49q-20 0 -25 12l-108 198l-111 -198q-4 -12 -25 -12h-49q-23 0 -8 22z" />
<glyph unicode="&#xe3;" horiz-adv-x="1032" d="M133 291v463q0 135 77 212.5t210 77.5h434q20 0 20 -24v-995q0 -25 -20 -25h-59q-23 0 -23 25v81h-8q-53 -106 -213 -106h-131q-133 0 -210 78t-77 213zM236 295q0 -96 49 -149.5t143 -53.5h133q98 0 154.5 52.5t56.5 148.5v641q0 18 -20 18h-324q-94 0 -143 -53 t-49 -149v-455zM338 1339v80q0 18 16 19h29q18 0 18 -19v-67q0 -63 11.5 -86t42 -23t44 18.5t37 81t47 83t82 20.5t84 -38t25.5 -122v-84q0 -20 -16 -20h-29q-18 0 -18 20v70q0 63 -12.5 86.5t-42 23.5t-41 -14t-19.5 -35.5t-9 -23.5t-2 -6.5t-3 -6.5q-23 -72 -50.5 -94 t-85 -22t-83 37.5t-25.5 121.5z" />
<glyph unicode="&#xe4;" horiz-adv-x="1028" d="M133 291v463q0 135 77 212.5t210 77.5h434q20 0 20 -24v-995q0 -25 -20 -25h-59q-23 0 -23 25v81h-8q-53 -106 -213 -106h-131q-133 0 -210 78t-77 213zM236 295q0 -96 49 -149.5t143 -53.5h133q98 0 154.5 52.5t56.5 148.5v641q0 18 -20 18h-324q-94 0 -143 -53 t-49 -149v-455zM330 1200v217q0 23 22 23h56q23 0 22 -23v-217q0 -25 -22 -24h-56q-22 -1 -22 24zM664 1200v217q0 23 22 23h57q20 0 21 -23v-217q0 -25 -21 -24h-57q-22 -1 -22 24z" />
<glyph unicode="&#xe5;" horiz-adv-x="1028" d="M133 291v463q0 135 77 212.5t210 77.5h434q20 0 20 -24v-995q0 -25 -20 -25h-59q-23 0 -23 25v81h-8q-53 -106 -213 -106h-131q-133 0 -210 78t-77 213zM236 295q0 -96 49 -149.5t143 -53.5h133q98 0 154.5 52.5t56.5 148.5v641q0 18 -20 18h-324q-94 0 -143 -53 t-49 -149v-455zM356 1268v96q0 131 140 131h49q143 0 143 -131v-96q0 -133 -143 -133h-49q-140 0 -140 133zM414 1276q0 -49 20.5 -68.5t71.5 -19.5h29q51 0 72.5 19.5t21.5 68.5v78q0 49 -21.5 67.5t-72.5 18.5h-29q-51 0 -71.5 -18.5t-20.5 -67.5v-78z" />
<glyph unicode="&#xe6;" horiz-adv-x="1628" d="M131 287v51q0 133 77 210t210 77h332q16 0 16 16v111q0 96 -50 148t-143 52h-315q-25 0 -25 23v47q0 23 25 22h313q186 0 248 -135q68 135 252 135h139q133 0 210 -77.5t77 -212.5v-305q0 -25 -22 -25h-586q-19 0 -19 -18v-111q0 -98 49.5 -150.5t143.5 -52.5h412 q23 0 22 -22v-47q0 -23 -22 -23h-420q-184 0 -248 135q-66 -135 -262 -135h-127q-131 0 -209 77t-78 210zM231 293q0 -203 197 -203h129q98 0 154.5 51.5t56.5 149.5v231q0 18 -20 19h-320q-197 0 -197 -203v-45zM870 522q0 -16 19 -16h493q21 0 21 16v228q0 98 -50 150 t-145 52h-131q-96 0 -151.5 -49t-55.5 -145v-236z" />
<glyph unicode="&#xe7;" horiz-adv-x="806" d="M133 291v463q0 135 77 212.5t210 77.5h295q23 0 22 -22v-49q1 -21 -22 -21h-287q-94 0 -143 -53t-49 -149v-455q0 -96 49 -149.5t143 -53.5h287q23 0 22 -22v-47q0 -23 -22 -23h-142l-90 -94v-8q82 0 121 -29t39 -96v-25q0 -123 -168 -123h-49q-25 0 -25 21v26 q0 20 25 21h39q109 0 108 65v4q0 39 -23.5 53.5t-84.5 14.5h-25q-37 0 -48 27.5t14 52.5l79 90h-65q-133 0 -210 78t-77 213z" />
<glyph unicode="&#xe8;" horiz-adv-x="1007" d="M133 291v463q0 135 77 212.5t210 77.5h176q133 0 211 -77.5t78 -212.5v-260q0 -25 -25 -25h-606q-18 0 -18 -18v-158q0 -96 49 -148.5t143 -52.5h420q23 0 22 -22v-47q1 -23 -22 -23h-428q-133 0 -210 78t-77 213zM236 569q0 -18 18 -18h510q18 0 18 18v183q0 96 -49 148 t-143 52h-162q-94 0 -143 -52t-49 -148v-183zM288 1432.5q5 7.5 15 7.5h90q25 0 37 -23l129 -217q12 -24 -8 -24h-41q-18 0 -35 18l-184 223q-8 8 -3 15.5z" />
<glyph unicode="&#xe9;" horiz-adv-x="1007" d="M133 291v463q0 135 77 212.5t210 77.5h176q133 0 211 -77.5t78 -212.5v-260q0 -25 -25 -25h-606q-18 0 -18 -18v-158q0 -96 49 -148.5t143 -52.5h420q23 0 22 -22v-47q1 -23 -22 -23h-428q-133 0 -210 78t-77 213zM236 569q0 -18 18 -18h510q18 0 18 18v183q0 96 -49 148 t-143 52h-162q-94 0 -143 -52t-49 -148v-183zM446 1200l129 217q10 23 37 23h93q10 0 14 -7.5t-4 -15.5l-185 -223q-12 -18 -34 -18h-39q-23 0 -11 24z" />
<glyph unicode="&#xea;" horiz-adv-x="1007" d="M133 291v463q0 135 77 212.5t210 77.5h176q133 0 211 -77.5t78 -212.5v-260q0 -25 -25 -25h-606q-18 0 -18 -18v-158q0 -96 49 -148.5t143 -52.5h420q23 0 22 -22v-47q1 -23 -22 -23h-428q-133 0 -210 78t-77 213zM236 569q0 -18 18 -18h510q18 0 18 18v183q0 96 -49 148 t-143 52h-162q-94 0 -143 -52t-49 -148v-183zM317 1198l132 223q12 18 40 19h43q29 0 41 -19l132 -223q14 -22 -11 -22h-49q-20 0 -24 12l-111 198l-109 -198q-4 -12 -24 -12h-49q-25 0 -11 22z" />
<glyph unicode="&#xeb;" horiz-adv-x="1007" d="M133 291v463q0 135 77 212.5t210 77.5h176q133 0 211 -77.5t78 -212.5v-260q0 -25 -25 -25h-606q-18 0 -18 -18v-158q0 -96 49 -148.5t143 -52.5h420q23 0 22 -22v-47q1 -23 -22 -23h-428q-133 0 -210 78t-77 213zM236 569q0 -18 18 -18h510q18 0 18 18v183q0 96 -49 148 t-143 52h-162q-94 0 -143 -52t-49 -148v-183zM293 1200v217q0 23 22 23h58q20 0 20 -23v-217q0 -25 -20 -24h-58q-22 -1 -22 24zM629 1200v217q0 23 20 23h58q20 0 20 -23v-217q0 -25 -20 -24h-58q-20 -1 -20 24z" />
<glyph unicode="&#xec;" horiz-adv-x="430" d="M-28 1432.5q3 7.5 16 7.5h90q25 0 37 -23l129 -217q12 -24 -8 -24h-41q-18 0 -35 18l-183 223q-8 8 -5 15.5zM164 25v995q0 25 20 24h60q23 0 22 -24v-995q0 -25 -20 -25h-62q-20 0 -20 25z" />
<glyph unicode="&#xed;" horiz-adv-x="425" d="M164 25v995q0 25 20 24h60q23 0 22 -24v-995q0 -25 -20 -25h-62q-20 0 -20 25zM182 1200l129 217q12 23 37 23h92q10 0 14.5 -7.5t-3.5 -15.5l-185 -223q-12 -18 -35 -18h-38q-23 0 -11 24z" />
<glyph unicode="&#xee;" horiz-adv-x="430" d="M23 1198l131 223q12 18 39 19h45q27 0 38 -19l132 -223q14 -22 -11 -22h-47q-18 0 -26 12l-109 198l-109 -198q-8 -12 -26 -12h-47q-25 0 -10 22zM164 25v995q0 25 20 24h60q23 0 22 -24v-995q0 -25 -20 -25h-62q-20 0 -20 25z" />
<glyph unicode="&#xef;" horiz-adv-x="430" d="M-2 1200v217q0 23 20 23h58q23 0 22 -23v-217q0 -25 -22 -24h-58q-20 -1 -20 24zM164 25v995q0 25 20 24h60q23 0 22 -24v-995q0 -25 -20 -25h-62q-20 0 -20 25zM332 1200v217q0 23 20 23h58q23 0 22 -23v-217q0 -25 -22 -24h-58q-20 -1 -20 24z" />
<glyph unicode="&#xf0;" horiz-adv-x="999" d="M133 291v258q0 135 77 213t210 78h131q164 0 217 -107h8q-4 84 -55 148l-215 243l-203 -170q-18 -12 -33 2l-20 27q-12 16 4 33l199 168l-164 184q-20 23 2 39l26 23q23 14 37 -5l166 -184l209 178q18 12 31 -2l22 -28q14 -18 -2 -33l-207 -174l226 -248q73 -88 73 -223 v-420q0 -135 -77.5 -213t-210.5 -78h-164q-133 0 -210 78t-77 213zM236 295q0 -96 49 -149.5t143 -53.5h147q94 0 143.5 52.5t49.5 150.5v252q0 96 -54.5 148.5t-152.5 52.5h-129q-94 0 -145 -53.5t-51 -149.5v-250z" />
<glyph unicode="&#xf1;" d="M154 25v995q0 25 20 24h59q23 0 23 -24v-82h8q57 106 213 106h135q131 0 207 -77.5t76 -212.5v-729q0 -25 -21 -25h-59q-23 0 -22 25v725q0 96 -49.5 149t-143.5 53h-133q-98 0 -154.5 -52t-56.5 -148v-727q0 -25 -23 -25h-59q-20 0 -20 25zM301 1339v80q0 18 18 19h29 q16 0 17 -19v-67q0 -61 12 -85t43 -24t44 18.5t36.5 81t47 83t82 20.5t84 -38t25.5 -122v-84q0 -20 -18 -20h-29q-16 0 -16 20v70q0 63 -12.5 86.5t-43 23.5t-42 -15t-34 -78.5t-49 -86t-85 -22.5t-84 37.5t-25.5 121.5z" />
<glyph unicode="&#xf2;" horiz-adv-x="1015" d="M133 291v463q0 135 77 212.5t210 77.5h176q133 0 211 -77.5t78 -212.5v-463q0 -135 -78 -213t-211 -78h-176q-133 0 -210 78t-77 213zM236 293q0 -96 49 -148.5t143 -52.5h160q94 0 144 52.5t50 148.5v459q0 96 -50 148t-144 52h-160q-94 0 -143 -52t-49 -148v-459z M272 1432.5q4 7.5 15 7.5h92q27 0 37 -23l129 -217q13 -24 -10 -24h-41q-18 0 -35 18l-183 223q-8 8 -4 15.5z" />
<glyph unicode="&#xf3;" horiz-adv-x="1015" d="M133 291v463q0 135 77 212.5t210 77.5h176q133 0 211 -77.5t78 -212.5v-463q0 -135 -78 -213t-211 -78h-176q-133 0 -210 78t-77 213zM236 293q0 -96 49 -148.5t143 -52.5h160q94 0 144 52.5t50 148.5v459q0 96 -50 148t-144 52h-160q-94 0 -143 -52t-49 -148v-459z M475 1200l129 217q10 23 37 23h92q10 0 14.5 -7.5t-4.5 -15.5l-182 -223q-16 -18 -35 -18h-41q-23 0 -10 24z" />
<glyph unicode="&#xf4;" horiz-adv-x="1015" d="M133 291v463q0 135 77 212.5t210 77.5h176q133 0 211 -77.5t78 -212.5v-463q0 -135 -78 -213t-211 -78h-176q-133 0 -210 78t-77 213zM236 293q0 -96 49 -148.5t143 -52.5h160q94 0 144 52.5t50 148.5v459q0 96 -50 148t-144 52h-160q-94 0 -143 -52t-49 -148v-459z M315 1198l129 223q12 18 41 19h45q27 0 39 -19l131 -223q15 -22 -10 -22h-49q-20 0 -25 12l-108 198l-111 -198q-4 -12 -24 -12h-49q-23 0 -9 22z" />
<glyph unicode="&#xf5;" horiz-adv-x="1015" d="M133 291v463q0 135 77 212.5t210 77.5h176q133 0 211 -77.5t78 -212.5v-463q0 -135 -78 -213t-211 -78h-176q-133 0 -210 78t-77 213zM236 293q0 -96 49 -148.5t143 -52.5h160q94 0 144 52.5t50 148.5v459q0 96 -50 148t-144 52h-160q-94 0 -143 -52t-49 -148v-459z M285 1339v80q0 18 18 19h29q16 0 16 -19v-67q0 -61 12.5 -85t43 -24t44 18.5t37 81t47 83t82 20.5t84 -38t25.5 -122v-84q0 -20 -18 -20h-29q-16 0 -17 20v70q0 63 -12 86.5t-43 23.5t-42 -15t-33.5 -78.5t-49 -86t-85 -22.5t-84 37.5t-25.5 121.5z" />
<glyph unicode="&#xf6;" horiz-adv-x="1015" d="M133 291v463q0 135 77 212.5t210 77.5h176q133 0 211 -77.5t78 -212.5v-463q0 -135 -78 -213t-211 -78h-176q-133 0 -210 78t-77 213zM236 293q0 -96 49 -148.5t143 -52.5h160q94 0 144 52.5t50 148.5v459q0 96 -50 148t-144 52h-160q-94 0 -143 -52t-49 -148v-459z M291 1200v217q0 23 20 23h58q23 0 22 -23v-217q0 -25 -22 -24h-58q-20 -1 -20 24zM625 1200v217q0 23 22 23h55q23 0 23 -23v-217q0 -25 -23 -24h-55q-22 -1 -22 24z" />
<glyph unicode="&#xf7;" horiz-adv-x="1044" d="M152 639v37q0 23 24 22h692q25 0 25 -22v-37q0 -23 -25 -23h-692q-25 0 -24 23zM479 301v125q0 25 23 25h41q23 0 22 -25v-125q0 -23 -22 -22h-41q-23 -1 -23 22zM479 889v123q0 25 23 24h41q23 0 22 -24v-123q0 -25 -22 -25h-41q-23 0 -23 25z" />
<glyph unicode="&#xf8;" horiz-adv-x="1067" d="M61 106l105 105q-8 33 -8 80v463q0 135 77.5 212.5t210.5 77.5h175q176 0 249 -129l78 78q18 18 33 2l25 -24q14 -14 -2 -33l-103 -102q8 -35 8 -82v-463q0 -135 -77.5 -213t-210.5 -78h-175q-176 0 -249 129l-78 -78q-18 -16 -33 0l-23 23q-16 12 -2 32zM260 305 l533 533q-39 115 -181 114h-157q-94 0 -144.5 -52t-50.5 -150v-445zM274 207q39 -115 181 -115h157q94 0 143.5 52.5t49.5 150.5v444z" />
<glyph unicode="&#xf9;" d="M143 291v729q0 25 21 24h59q23 0 23 -24v-725q0 -96 49 -149.5t143 -53.5h133q98 0 154.5 52.5t56.5 148.5v727q0 25 23 24h59q20 0 21 -24v-995q0 -25 -21 -25h-59q-23 0 -23 25v81h-8q-53 -106 -213 -106h-135q-131 0 -207 78t-76 213zM282 1432.5q3 7.5 13 7.5h92 q27 0 37 -23l129 -217q12 -24 -8 -24h-41q-23 0 -35 18l-184 223q-6 8 -3 15.5z" />
<glyph unicode="&#xfa;" d="M143 291v729q0 25 21 24h59q23 0 23 -24v-725q0 -96 49 -149.5t143 -53.5h133q98 0 154.5 52.5t56.5 148.5v727q0 25 23 24h59q20 0 21 -24v-995q0 -25 -21 -25h-59q-23 0 -23 25v81h-8q-53 -106 -213 -106h-135q-131 0 -207 78t-76 213zM479 1200l129 217q10 23 37 23 h92q10 0 13.5 -7.5t-2.5 -15.5l-185 -223q-14 -18 -35 -18h-41q-20 0 -8 24z" />
<glyph unicode="&#xfb;" d="M143 291v729q0 25 21 24h59q23 0 23 -24v-725q0 -96 49 -149.5t143 -53.5h133q98 0 154.5 52.5t56.5 148.5v727q0 25 23 24h59q20 0 21 -24v-995q0 -25 -21 -25h-59q-23 0 -23 25v81h-8q-53 -106 -213 -106h-135q-131 0 -207 78t-76 213zM322 1198l131 223q12 18 39 19 h45q29 0 41 -19l129 -223q14 -22 -9 -22h-49q-18 0 -26 12l-109 198l-108 -198q-8 -12 -27 -12h-47q-25 0 -10 22z" />
<glyph unicode="&#xfc;" d="M143 291v729q0 25 21 24h59q23 0 23 -24v-725q0 -96 49 -149.5t143 -53.5h133q98 0 154.5 52.5t56.5 148.5v727q0 25 23 24h59q20 0 21 -24v-995q0 -25 -21 -25h-59q-23 0 -23 25v81h-8q-53 -106 -213 -106h-135q-131 0 -207 78t-76 213zM297 1200v217q0 23 22 23h56 q23 0 22 -23v-217q0 -25 -22 -24h-56q-22 -1 -22 24zM631 1200v217q0 23 22 23h58q20 0 20 -23v-217q0 -25 -20 -24h-58q-22 -1 -22 24z" />
<glyph unicode="&#xfd;" horiz-adv-x="940" d="M59 1020q-8 25 17 24h63q20 0 27 -24l301 -879h8l301 879q6 25 27 24h61q25 0 19 -24q-367 -1073 -382.5 -1110t-56.5 -100q-77 -121 -241 -121h-76q-23 0 -23 22v49q0 23 23 23h55q61 0 104.5 17.5t76 64.5t43.5 74q29 63 47 116h-39q-23 0 -29 25zM440 1200l129 217 q12 23 37 23h92q10 0 14.5 -7.5t-3.5 -15.5l-185 -223q-12 -18 -35 -18h-38q-23 0 -11 24z" />
<glyph unicode="&#xfe;" horiz-adv-x="1040" d="M162 -248v1663q0 25 22 25h60q20 0 20 -25v-477h8q57 106 215 106h134q133 0 209.5 -77.5t76.5 -212.5v-463q0 -135 -76.5 -213t-209.5 -78h-134q-158 0 -215 106h-8v-354q0 -25 -20 -24h-60q-23 0 -22 24zM264 293q0 -96 56.5 -148.5t154.5 -52.5h135q94 0 144.5 52.5 t50.5 150.5v455q0 98 -50 150t-145 52h-135q-98 0 -154.5 -52t-56.5 -148v-459z" />
<glyph unicode="&#xff;" horiz-adv-x="940" d="M59 1020q-8 25 17 24h63q20 0 27 -24l301 -879h8l301 879q6 25 27 24h61q25 0 19 -24q-367 -1073 -382.5 -1110t-56.5 -100q-77 -121 -241 -121h-76q-23 0 -23 22v49q0 23 23 23h55q61 0 104.5 17.5t76 64.5t43.5 74q29 63 47 116h-39q-23 0 -29 25zM254 1200v217 q0 23 20 23h58q23 0 22 -23v-217q0 -25 -22 -24h-58q-20 -1 -20 24zM588 1200v217q0 23 22 23h56q23 0 22 -23v-217q0 -25 -22 -24h-56q-22 -1 -22 24z" />
<glyph unicode="&#x152;" horiz-adv-x="1587" d="M156 291v735q0 135 77.5 213t210.5 78h965q25 0 25 -23v-47q0 -23 -25 -22h-526q-20 0 -21 -19v-471q0 -18 21 -18h469q23 0 22 -23v-47q0 -23 -22 -22h-469q-20 0 -21 -19v-495q0 -18 21 -19h526q25 0 25 -22v-47q0 -23 -25 -23h-965q-133 0 -210.5 78t-77.5 213z M260 295q0 -98 49.5 -150.5t143.5 -52.5h286q20 0 21 19v1095q0 18 -21 19h-286q-94 0 -143.5 -52.5t-49.5 -150.5v-727z" />
<glyph unicode="&#x153;" horiz-adv-x="1662" d="M133 291v463q0 135 77 212.5t210 77.5h166q176 0 250 -135q72 135 245 135h164q133 0 210 -77.5t77 -212.5v-260q0 -25 -23 -25h-606q-18 0 -18 -18v-156q0 -98 49 -150.5t143 -52.5h418q23 0 23 -22v-47q0 -23 -23 -23h-416q-178 0 -252 137q-61 -137 -237 -137h-170 q-133 0 -210 78t-77 213zM236 295q0 -96 49 -149.5t143 -53.5h160q94 0 143 52.5t49 150.5v455q0 98 -49 150t-143 52h-160q-94 0 -143 -53t-49 -149v-455zM885 569q0 -18 18 -18h506q20 0 21 18v181q0 96 -49.5 149t-143.5 53h-160q-94 0 -143 -52t-49 -150v-181z" />
<glyph unicode="&#x178;" horiz-adv-x="1009" d="M55 1292q-12 25 15 25h73q18 0 29 -25l328 -669h10l326 669q10 25 28 25h76q23 0 14 -25l-399 -794v-473q0 -25 -20 -25h-60q-23 0 -22 25v473zM287 1473v217q0 23 22 22h58q20 0 20 -22v-217q0 -25 -20 -25h-58q-22 0 -22 25zM621 1473v217q0 23 22 22h57q20 0 21 -22 v-217q0 -25 -21 -25h-57q-22 0 -22 25z" />
<glyph unicode="&#x2c6;" horiz-adv-x="667" d="M139 1198l131 223q12 18 41 19h43q29 0 41 -19l131 -223q15 -22 -10 -22h-49q-20 0 -25 12l-108 198l-111 -198q-4 -12 -24 -12h-49q-25 0 -11 22z" />
<glyph unicode="&#x2dc;" horiz-adv-x="755" d="M135 1339v80q0 18 19 19h28q16 0 17 -19v-67q0 -61 12 -85t43 -24t43 18.5t36.5 81t48.5 83t81 20.5t83.5 -38t26.5 -122v-84q0 -20 -18 -20h-29q-16 0 -16 20v70q0 63 -12.5 86.5t-47 23.5t-49.5 -34q-4 -6 -24.5 -64.5t-47 -81t-84 -22.5t-84 37.5t-26.5 121.5z" />
<glyph unicode="&#x2000;" horiz-adv-x="893" />
<glyph unicode="&#x2001;" horiz-adv-x="1786" />
<glyph unicode="&#x2002;" horiz-adv-x="893" />
<glyph unicode="&#x2003;" horiz-adv-x="1786" />
<glyph unicode="&#x2004;" horiz-adv-x="595" />
<glyph unicode="&#x2005;" horiz-adv-x="446" />
<glyph unicode="&#x2006;" horiz-adv-x="297" />
<glyph unicode="&#x2007;" horiz-adv-x="297" />
<glyph unicode="&#x2008;" horiz-adv-x="223" />
<glyph unicode="&#x2009;" horiz-adv-x="357" />
<glyph unicode="&#x200a;" horiz-adv-x="99" />
<glyph unicode="&#x2010;" horiz-adv-x="638" d="M82 633v45q0 23 24 22h426q25 0 25 -22v-45q0 -23 -25 -23h-426q-25 0 -24 23z" />
<glyph unicode="&#x2011;" horiz-adv-x="638" d="M82 633v45q0 23 24 22h426q25 0 25 -22v-45q0 -23 -25 -23h-426q-25 0 -24 23z" />
<glyph unicode="&#x2012;" horiz-adv-x="638" d="M82 633v45q0 23 24 22h426q25 0 25 -22v-45q0 -23 -25 -23h-426q-25 0 -24 23z" />
<glyph unicode="&#x2013;" horiz-adv-x="835" d="M82 639v39q0 23 24 22h625q23 0 23 -22v-39q0 -23 -23 -23h-625q-25 0 -24 23z" />
<glyph unicode="&#x2014;" horiz-adv-x="1099" d="M82 639v39q0 23 24 22h889q23 0 23 -22v-39q0 -23 -23 -23h-889q-24 0 -24 23z" />
<glyph unicode="&#x2018;" horiz-adv-x="366" d="M129 852v141q0 29 23 123l53 187q2 14 17.5 14t15.5 -19v-446q0 -23 -23 -23h-63q-23 0 -23 23z" />
<glyph unicode="&#x2019;" horiz-adv-x="366" d="M129 848v446q0 23 23 23h63q23 0 23 -23v-141q0 -33 -23 -123l-53 -186q-2 -14 -17.5 -14.5t-15.5 18.5z" />
<glyph unicode="&#x201a;" horiz-adv-x="382" d="M137 -197v447q0 23 23 22h63q23 1 23 -22v-139q0 -35 -23 -125l-53 -187q-4 -14 -18.5 -14t-14.5 18z" />
<glyph unicode="&#x201c;" horiz-adv-x="673" d="M129 852v141q0 29 23 123l53 187q2 14 17.5 14t15.5 -19v-446q0 -23 -23 -23h-63q-23 0 -23 23zM436 852v141q0 29 23 123l53 187q2 14 17.5 14t15.5 -19v-446q0 -23 -23 -23h-63q-23 0 -23 23z" />
<glyph unicode="&#x201d;" horiz-adv-x="673" d="M129 848v446q0 23 23 23h63q23 0 23 -23v-141q0 -33 -23 -123l-53 -186q-2 -14 -17.5 -14.5t-15.5 18.5zM436 848v446q0 23 23 23h63q23 0 23 -23v-141q0 -33 -23 -123l-53 -186q-2 -14 -17.5 -14.5t-15.5 18.5z" />
<glyph unicode="&#x201e;" horiz-adv-x="690" d="M137 -197v447q0 23 23 22h63q23 1 23 -22v-141q0 -33 -23 -123l-53 -187q-2 -14 -17.5 -14t-15.5 18zM444 -197v447q0 23 23 22h65q21 1 21 -22v-141q0 -41 -74 -310q-6 -14 -20.5 -14t-14.5 18z" />
<glyph unicode="&#x2022;" horiz-adv-x="559" d="M186 528v250q0 45 45 45h97q43 0 43 -45v-250q0 -45 -43 -45h-97q-45 0 -45 45z" />
<glyph unicode="&#x2026;" horiz-adv-x="1210" d="M137 25v243q0 23 23 23h71q21 0 21 -23v-243q0 -25 -21 -25h-71q-23 0 -23 25zM549 25v243q0 23 22 23h72q21 0 21 -23v-243q0 -25 -21 -25h-72q-23 0 -22 25zM958 25v243q0 23 21 23h74q20 0 20 -23v-243q0 -25 -20 -25h-74q-20 0 -21 25z" />
<glyph unicode="&#x202f;" horiz-adv-x="357" />
<glyph unicode="&#x2039;" horiz-adv-x="593" d="M133 504v39q0 25 23 47l278 272q12 12 20.5 7t8.5 -19v-53q0 -16 -19 -35l-239 -240l239 -239q19 -17 19 -33v-53q0 -14 -8.5 -19.5t-20.5 6.5l-278 273q-23 23 -23 47z" />
<glyph unicode="&#x203a;" horiz-adv-x="593" d="M133 197v53q0 18 17 33l241 239l-241 240q-17 17 -17 35v53q0 14 7 19t20 -7l278 -272q25 -25 25 -47v-39q0 -23 -25 -47l-278 -273q-12 -12 -19.5 -7t-7.5 20z" />
<glyph unicode="&#x205f;" horiz-adv-x="446" />
<glyph unicode="&#x20ac;" horiz-adv-x="1071" d="M74 514v35q0 23 24 22h125v168h-125q-25 0 -24 23v37q0 23 24 22h125v211q0 133 78 209t209 76h133q133 0 211 -76t78 -209v-55q0 -25 -23 -25h-59q-20 0 -21 25v53q0 197 -194 197h-115q-195 0 -194 -197v-209h323q25 0 25 -22v-37q0 -23 -25 -23h-323v-168h323 q25 0 25 -22v-35q0 -25 -25 -25h-323v-202q0 -197 194 -197h115q195 0 194 197v53q0 25 21 25h59q23 0 23 -25v-55q0 -133 -78 -209t-211 -76h-133q-131 0 -209 76t-78 209v204h-125q-25 0 -24 25z" />
<glyph unicode="&#x2122;" horiz-adv-x="1210" d="M133 1274v26q0 16 19 17h340q20 0 20 -17v-26q0 -18 -20 -19h-136v-421q0 -18 -18 -19h-31q-16 1 -16 19v421h-139q-18 0 -19 19zM608 834v466q0 16 19 17h45q12 0 20 -12l148 -289h8l147 289q5 12 19 12h45q20 0 20 -17v-466q0 -18 -18 -19h-31q-18 0 -18 19v372h-6 l-125 -252q-8 -18 -19 -18h-33q-14 0 -22 18l-125 252h-8v-372q0 -18 -19 -19h-30q-16 0 -17 19z" />
<glyph unicode="&#x25fc;" horiz-adv-x="1044" d="M0 0v1044h1044v-1044h-1044z" />
</font>
</defs>
</svg>
